<?xml version="1.0" standalone="no"?> 
<!DOCTYPE svg PUBLIC "-//W3C//DTD SVG 1.1//EN" "http://www.w3.org/Graphics/SVG/1.1/DTD/svg11.dtd" >
<svg xmlns="http://www.w3.org/2000/svg">
<defs>
  <font id="icons" horiz-adv-x="512">
    <font-face font-family="icons"
      units-per-em="512" ascent="512"
      descent="0" />
    <missing-glyph horiz-adv-x="0" />
    <glyph glyph-name="arrow-down"
      unicode="&#xEA01;"
      horiz-adv-x="512" d=" M256.560175 219.428571L310.33698 270.310559L512 461.1180124L458.223195 512L256.560175 321.192547L53.7768053 512L0 461.1180124L202.78337 270.310559z" />
    <glyph glyph-name="arrow-left"
      unicode="&#xEA02;"
      horiz-adv-x="512" d=" M378.414064 35.142508C385.860123 27.104832 385.860123 14.065934 378.414064 6.028257C370.979136 -2.009419 358.902942 -2.009419 351.456884 6.028257L133.584544 241.442875C126.138485 249.480551 126.138485 262.519449 133.584544 270.5571250000001L351.456884 505.97174254C358.902942 514.00941915 370.968006 514.00941915 378.414064 505.97174254C385.860123 497.9340659 385.860123 484.8951683 378.425194 476.8574917L179.724507 255.970231L378.414064 35.142508" />
    <glyph glyph-name="arrow-right"
      unicode="&#xEA03;"
      horiz-adv-x="512" d=" M133.593043 35.142508C126.135652 27.104832 126.135652 14.065934 133.593043 6.028257C141.050435 -2.009419 153.126957 -2.009419 160.528696 6.028257L378.406957 241.442875C385.864348 249.480551 385.864348 262.519449 378.406957 270.5571250000001L160.528696 505.97174254C153.126957 514.00941915 141.050435 514.00941915 133.593043 505.97174254C126.135652 497.9340659 126.135652 484.8951683 133.593043 476.8574917L332.271304 255.970231L133.593043 35.142508" />
    <glyph glyph-name="audio"
      unicode="&#xEA04;"
      horiz-adv-x="512" d=" M337.6029710000001 241.208889C330.639771 230.684444 326.953371 235.178667 329.059886 241.208889C334.560229 257.080889 334.326171 305.095111 288.333943 312.149333L288.333943 163.896889C288.333943 136.248889 271.949943 118.897778 237.133943 108.032C203.312686 97.507556 165.453943 108.430222 156.618286 132.096C147.782629 155.704889 167.677486 184.433778 201.030629 196.266667C219.638171 202.808889 238.538286 202.752 253.166857 197.290667L253.166857 406.414222L288.333943 406.414222C288.333943 370.517333 387.223086 316.3022220000001 337.6029710000001 241.208889L337.6029710000001 241.208889zM402.085714 512L109.514286 512C77.3314286 512 51 486.4 51 455.1111111L51 56.888889C51 25.6 77.3314286 0 109.514286 0L402.085714 0C434.268571 0 460.6 25.6 460.6 56.888889L460.6 455.1111111C460.6 486.4 434.268571 512 402.085714 512L402.085714 512z" />
    <glyph glyph-name="book"
      unicode="&#xEA05;"
      horiz-adv-x="512" d=" M432.366933 355.091598L318.5664 309.5816210000001L318.5664 271.068803L432.366933 316.57878L432.366933 355.091598L432.366933 355.091598zM432.366933 236.93632L318.5664 191.426342L318.5664 152.913524L432.366933 198.423501L432.366933 236.93632L432.366933 236.93632zM466.488889 131.011847L284.444444 58.195884L284.444444 376.9932750000001L466.488889 449.8092388L466.488889 131.011847L466.488889 131.011847zM227.555556 58.195884L45.5111111 131.011847L45.5111111 449.8092388L227.555556 376.9932750000001L227.555556 58.195884L227.555556 58.195884zM499.501511 507.0949228C491.690667 512.385457674 481.757867 513.46631964 472.991289 509.99618386L256 423.185902L39.0030222 509.99618386C30.2364444 513.46631964 20.3150222 512.385457674 12.4928 507.0949228C4.68195556 501.8612754 0 492.9868298 0 483.5435095L0 119.463691C0 107.858646 7.07697778 97.391352 17.8688 93.067904L244.946489 2.275499C244.946489 2.275499 249.6 0.739537 250.481778 0.568875C252.302222 0.22755 254.145422 0 256 0C257.848889 0 259.692089 0.22755 261.523911 0.568875C262.388622 0.739537 267.070578 2.275499 267.070578 2.275499L494.125511 93.067904C504.923022 97.391352 512 107.858646 512 119.463691L512 483.5435095C512 492.9868298 507.312356 501.8612754 499.501511 507.0949228L499.501511 507.0949228zM193.4336 309.5816210000001L79.6330667 355.091598L79.6330667 316.57878L193.4336 271.068803L193.4336 309.5816210000001L193.4336 309.5816210000001zM193.4336 191.426342L79.6330667 236.93632L79.6330667 198.423501L193.4336 152.913524L193.4336 191.426342L193.4336 191.426342z" />
    <glyph glyph-name="camera"
      unicode="&#xEA06;"
      horiz-adv-x="512" d=" M442.88 296.35924C432.9984 296.35924 424.96 304.271265 424.96 314.042566C424.96 323.803762 432.9984 331.7258930000001 442.88 331.7258930000001C452.7616 331.7258930000001 460.8 323.803762 460.8 314.042566C460.8 304.271265 452.7616 296.35924 442.88 296.35924L442.88 296.35924zM256 104.313263C185.2928 104.313263 128 160.899908 128 230.642947C128 300.396091 185.2928 356.952421 256 356.952421C326.7072 356.952421 384 300.396091 384 230.642947C384 160.899908 326.7072 104.313263 256 104.313263L256 104.313263zM460.8 382.214316L399.36 382.214316C390.912 382.214316 381.7984 388.681361 379.136 396.593386L363.264 443.6209295C360.6016 451.5329549 351.488 458 343.04 458L168.96 458C160.512 458 151.3984 451.5329549 148.736 443.6209295L132.864 396.593386C130.2016 388.681361 121.088 382.214316 112.64 382.214316L51.2 382.214316C23.04 382.214316 0 359.47861 0 331.690526L0 104.313263C0 76.525179 23.04 53.789474 51.2 53.789474L460.8 53.789474C488.96 53.789474 512 76.525179 512 104.313263L512 331.690526C512 359.47861 488.96 382.214316 460.8 382.214316L460.8 382.214316zM256 306.428631C213.6064 306.428631 179.2 272.4867490000001 179.2 230.642947C179.2 188.789039 213.6064 154.837053 256 154.837053C298.3936 154.837053 332.8 188.789039 332.8 230.642947C332.8 272.4867490000001 298.3936 306.428631 256 306.428631L256 306.428631z" />
    <glyph glyph-name="close"
      unicode="&#xEA07;"
      horiz-adv-x="512" d=" M0.200165395 454.1707045L454.029565 0.341305L511.658695 57.970435L57.8292955 511.799834605z M454.029565 511.799834605L0.200165395 57.970435L57.8292955 0.341305L511.658695 454.1707045z" />
    <glyph glyph-name="collapse"
      unicode="&#xEA08;"
      horiz-adv-x="512" d=" M203.034483 282.482759L97.1034483 282.482759C82.4761379 282.482759 70.6206897 294.338207 70.6206897 308.965517C70.6206897 323.584 82.4761379 335.448276 97.1034483 335.448276L139.096276 335.448276L7.44165517 467.094069L7.47696552 467.1382069C2.86896552 471.8962759 0 478.358069 0 485.5172414C0 500.1357241 11.8554483 512 26.4827586 512C33.641931 512 40.1037241 509.13986207 44.8617931 504.52303448L44.8971034 504.54951724L176.551724 372.894897L176.551724 414.8965517000001C176.551724 429.5150345 188.407172 441.3793103 203.034483 441.3793103C217.661793 441.3793103 229.517241 429.5150345 229.517241 414.8965517000001L229.517241 308.965517C229.517241 294.338207 217.661793 282.482759 203.034483 282.482759L203.034483 282.482759zM203.034483 70.62069C188.407172 70.62069 176.551724 82.476138 176.551724 97.103448L176.551724 139.096276L44.8971034 7.441655L44.8617931 7.476966C40.1037241 2.860138 33.641931 0 26.4827586 0C11.8554483 0 0 11.855448 0 26.482759C0 33.641931 2.86896552 40.103724 7.47696552 44.861793L7.44165517 44.897103L139.096276 176.551724L97.1034483 176.551724C82.4761379 176.551724 70.6206897 188.407172 70.6206897 203.034483C70.6206897 217.652966 82.4761379 229.517241 97.1034483 229.517241L203.034483 229.517241C217.661793 229.517241 229.517241 217.652966 229.517241 203.034483L229.517241 97.103448C229.517241 82.476138 217.661793 70.62069 203.034483 70.62069L203.034483 70.62069zM308.965517 229.517241L414.896552 229.517241C429.523862 229.517241 441.37931 217.652966 441.37931 203.034483C441.37931 188.407172 429.523862 176.551724 414.896552 176.551724L372.903724 176.551724L504.558345 44.897103L504.523034 44.861793C509.131034 40.103724 512 33.641931 512 26.482759C512 11.855448 500.144552 0 485.517241 0C478.366897 0 471.896276 2.860138 467.129379 7.476966L467.102897 7.441655L335.448276 139.096276L335.448276 97.103448C335.448276 82.476138 323.592828 70.62069 308.965517 70.62069C294.338207 70.62069 282.482759 82.476138 282.482759 97.103448L282.482759 203.034483C282.482759 217.652966 294.338207 229.517241 308.965517 229.517241L308.965517 229.517241zM504.558345 467.094069L372.903724 335.448276L414.896552 335.448276C429.523862 335.448276 441.37931 323.584 441.37931 308.965517C441.37931 294.338207 429.523862 282.482759 414.896552 282.482759L308.965517 282.482759C294.338207 282.482759 282.482759 294.338207 282.482759 308.965517L282.482759 414.8965517000001C282.482759 429.5150345 294.338207 441.3793103 308.965517 441.3793103C323.592828 441.3793103 335.448276 429.5150345 335.448276 414.8965517000001L335.448276 372.894897L467.102897 504.54951724L467.129379 504.52303448C471.896276 509.13986207 478.366897 512 485.517241 512C500.144552 512 512 500.1357241 512 485.5172414C512 478.358069 509.131034 471.8962759 504.523034 467.1382069L504.558345 467.094069z" />
    <glyph glyph-name="document"
      unicode="&#xEA09;"
      horiz-adv-x="512" d=" M90.2822967 153.975187L326.69378 153.975187L326.69378 362.5082L236.354165 460.8535981L90.2822967 460.8535981L90.2822967 153.975187zM43 512L256.027178 512L373.976077 383.598619L373.976077 102.828785L43 102.828785L43 512z M184.84689 486.4267991L184.84689 332.987594L232.129187 332.987594L232.129187 486.4267991z M350.334928 384.1339950000001L184.84689 384.1339950000001L184.84689 332.987594L350.334928 332.987594z M421.621833 51.415447L185.392322 51.415447L185.392322 127.744862L138.1100251 127.744862L138.1100251 0.269045L468.90413 0.269045L468.90413 409.504035L327.081873 409.504035L327.081873 358.357634L421.621833 358.357634z" />
    <glyph glyph-name="expand"
      unicode="&#xEA0A;"
      horiz-adv-x="512" d=" M63.7411527 125.549385L0 204.488399L0 0L203.842265 0L125.217391 63.878281L223.255814 159.046532L158.543984 223.963484L63.7411527 125.549385zM385.941355 448.8358058L287.967644 353.797388L352.6794740000001 288.8804360000001L447.547017 387.294535L512 307.5116010000001L512 512L308.157735 512L385.941355 448.8358058z" />
    <glyph glyph-name="facebook"
      unicode="&#xEA0B;"
      horiz-adv-x="512" d=" M294.165362 233.545881L369.643254 233.545881L380.9411140000001 324.564488L294.165362 324.564488L294.165362 382.675846C294.165362 409.027857 301.2099360000001 426.985277 337.594575 426.985277L384 427.0078735L384 508.4139392C375.969882 509.52116654 348.426858 512 316.378179 512C249.474305 512 203.669344 469.5841542 203.669344 391.687321L203.669344 324.564488L128 324.564488L128 233.545881L203.669344 233.545881L203.669344 0L294.165362 0L294.165362 233.545881z" />
    <glyph glyph-name="folder"
      unicode="&#xEA0C;"
      horiz-adv-x="512" d=" M471.154408 380.8C468.338251 391.36 454.411073 400 440.176679 400L265.728543 400C251.545351 400 231.729845 407.632 221.642883 416.944L206.435634 431.104C196.348671 440.416 176.533165 448 162.349973 448L78.9917211 448C64.8085295 448 51.9054094 437.296 50.3693236 424.144L42.8937064 361.6L476.325897 361.6L471.154408 380.8L471.154408 380.8zM488.20496 328L23.7950405 328C0.241725972 328 -0.935939755 317.248 0.344131687 304.096L21.439709 87.904C22.7197805 74.8 26.0479662 64 49.6012808 64L462.398719 64C486.412859 64 489.229017 74.8 490.509088 87.904L511.655868 304.096C512.93594 317.248 511.758274 328 488.20496 328L488.20496 328z" />
    <glyph glyph-name="grid"
      unicode="&#xEA0D;"
      horiz-adv-x="500" d=" M80 432H160V416H80V432z M80 368H160V352H80V368z M80 432H96V352H80V432z M144 432H160V352H144V432z M208 432H288V416H208V432z M208 368H288V352H208V368z M208 432H224V352H208V432z M272 432H288V352H272V432z M336 432H416V416H336V432z M336 368H416V352H336V368z M336 432H352V352H336V432z M400 432H416V352H400V432z M80 304H160V288H80V304z M80 240H160V224H80V240z M80 304H96V224H80V304z M144 304H160V224H144V304z M208 304H288V288H208V304z M208 240H288V224H208V240z M208 304H224V224H208V304z M272 304H288V224H272V304z M336 304H416V288H336V304z M336 240H416V224H336V240z M336 304H352V224H336V304z M400 304H416V224H400V304z M80 176H160V160H80V176z M80 112H160V96H80V112z M80 176H96V96H80V176z M144 176H160V96H144V176z M208 176H288V160H208V176z M208 112H288V96H208V112z M208 176H224V96H208V176z M272 176H288V96H272V176z M336 176H416V160H336V176z M336 112H416V96H336V112z M336 176H352V96H336V176z M400 176H416V96H400V176z M80 432H160V416H80V432z M80 368H160V352H80V368z M80 432H96V352H80V432z M144 432H160V352H144V432z M208 432H288V416H208V432z M208 368H288V352H208V368z M208 432H224V352H208V432z M272 432H288V352H272V432z M336 432H416V416H336V432z M336 368H416V352H336V368z M336 432H352V352H336V432z M400 432H416V352H400V432z M0 512H496V496H0V512z M0 32H496V16H0V32z M480 512H496V16H480V512z M0 512H16V16H0V512z" />
    <glyph glyph-name="heirachy"
      unicode="&#xEA0E;"
      horiz-adv-x="512" d=" M341.333333 375.4666670000001L324.266667 358.4L324.266667 375.4666670000001L341.333333 375.4666670000001zM204.8 494.9333333L204.8 375.4666670000001L324.266667 375.4666670000001L324.266667 494.9333333L204.8 494.9333333zM341.333333 512L341.333333 358.4L187.733333 358.4L187.733333 512L341.333333 512z M460.8 256L85.3333333 256L85.3333333 238.933333L460.8 238.933333z M119.466667 17.066667L136.533333 17.066667L119.466667 0L119.466667 17.066667zM119.466667 119.466667L17.0666667 119.466667L17.0666667 17.066667L119.466667 17.066667L119.466667 119.466667zM136.533333 136.533333L136.533333 0L0 0L0 136.533333L136.533333 136.533333z M307.2 17.066667L324.266667 17.066667L307.2 0L307.2 17.066667zM307.2 119.466667L204.8 119.466667L204.8 17.066667L307.2 17.066667L307.2 119.466667zM324.266667 136.533333L324.266667 0L187.733333 0L187.733333 136.533333L324.266667 136.533333z M494.933333 17.066667L512 17.066667L494.933333 0L494.933333 17.066667zM494.933333 119.466667L392.5333330000001 119.466667L392.5333330000001 17.066667L494.933333 17.066667L494.933333 119.466667zM512 136.533333L512 0L375.466667 0L375.466667 136.533333L512 136.533333z M443.733333 256L443.733333 170.666667L460.8 170.666667L460.8 256z M68.2666667 256L68.2666667 170.666667L85.3333333 170.666667L85.3333333 256z M256 324.266667L256 170.666667L273.066667 170.666667L273.066667 324.266667z" />
    <glyph glyph-name="instagram"
      unicode="&#xEA0F;"
      horiz-adv-x="512" d=" M150.462971 510.45490047C123.207969 509.21951488 104.59552 504.91388378 88.3207316 498.6111617C71.4885278 492.1019636 57.219564 483.3683774 42.9715032 469.1970125C28.7443456 455.02478 19.9763752 440.8126405 13.4415503 424.0247567C7.11401432 407.813791 2.79143192 389.275199 1.5511826 362.12708C0.290030211 334.937319 0 326.245375 0 256.993511C0 187.742514 0.290030211 179.049703 1.5511826 151.859942C2.79143192 124.711823 7.11401432 106.172364 13.4415503 89.963133C19.9763752 73.195203 28.7234425 58.961374 42.9715032 44.79001C57.1986609 30.618645 71.4676247 21.90588 88.3207316 15.37586C104.616423 9.072271 123.207969 4.767507 150.462971 3.532122C177.77981 2.295868 186.486813 1.986154 256.010452 1.986154C325.554993 1.986154 334.261125 2.275047 361.557933 3.532122C388.813805 4.767507 407.424512 9.072271 423.699301 15.37586C440.532375 21.90588 454.800468 30.618645 469.0494 44.79001C483.276558 58.961374 492.024496 73.195203 498.579353 89.963133C504.906889 106.172364 509.249503 124.711823 510.46972 151.859942C511.70997 179.070524 512 187.742514 512 256.993511C512 326.245375 511.70997 334.937319 510.46972 362.12708C509.2286 389.275199 504.906889 407.813791 498.579353 424.0247567C492.024496 440.7918194 483.276558 455.0048265 469.0494 469.1970125C454.822242 483.3683774 440.532375 492.1019636 423.720204 498.6111617C407.424512 504.91388378 388.813805 509.24033598 361.577965 510.45490047C334.281157 511.691153603 325.554993 512 256.030484 512C186.486813 512 177.77981 511.711974708 150.462971 510.45490047M152.571569 49.425308C127.612422 50.558323 114.046324 54.698253 105.03013 58.199669C93.0779238 62.8341 84.5581775 68.354296 75.5829183 77.274404C66.6285621 86.192778 61.0657304 94.679113 56.4339566 106.585315C52.9178847 115.566152 48.7616559 129.078182 47.625051 153.941185C46.3830598 180.821232 46.1357067 188.896351 46.1357067 256.993511C46.1357067 325.091539 46.4039629 333.1458370000001 47.625051 360.046705C48.7616559 384.90884 52.9387877 398.400916 56.4339566 407.401707C61.0866335 419.3079087 66.6285621 427.7942443 75.5829183 436.7343064C84.5372744 445.6526799 93.0570208 451.1936966 105.03013 455.8081741C114.046324 459.30959 127.612422 463.4495198 152.571569 464.5834025C179.559185 465.8187881 187.664353 466.0660387 256.010452 466.0660387C324.376582 466.0660387 332.461719 465.797967 359.469367 464.5834025C384.428513 463.4495198 397.973708 459.2887689 407.010805 455.8081741C418.963882 451.1936966 427.483629 445.6526799 436.458888 436.7343064C445.412373 427.8150654 450.954302 419.3079087 455.606979 407.401707C459.123051 398.42087 463.28015 384.90884 464.416755 360.046705C465.657875 333.1458370000001 465.905228 325.091539 465.905228 256.993511C465.905228 188.916304 465.657875 180.842053 464.416755 153.941185C463.28015 129.078182 459.102147 115.565285 455.606979 106.585315C450.954302 94.679113 445.412373 86.192778 436.458888 77.274404C427.503661 68.354296 418.963882 62.8341 407.010805 58.199669C397.995482 54.698253 384.428513 50.558323 359.469367 49.425308C332.482622 48.189055 324.376582 47.941804 256.010452 47.941804C187.664353 47.941804 179.559185 48.189055 152.571569 49.425308M361.950736 393.1271040000001C361.950736 376.236849 375.7023490000001 362.518344 392.680003 362.518344C409.636755 362.518344 423.40927 376.236849 423.40927 393.1271040000001C423.40927 410.0182260000001 409.6576580000001 423.7159103 392.680003 423.7159103C375.7023490000001 423.7159103 361.950736 410.0182260000001 361.950736 393.1271040000001M124.551863 256.993511C124.551863 184.673136 183.405351 126.050446 256.010452 126.050446C328.614681 126.050446 387.46904 184.673136 387.46904 256.993511C387.46904 329.313886 328.614681 387.936576 256.010452 387.936576C183.405351 387.936576 124.551863 329.313886 124.551863 256.993511M170.68757 256.993511C170.68757 303.937296 208.88272 342.002614 256.010452 342.002614C303.138184 342.002614 341.353365 303.937296 341.353365 256.993511C341.353365 210.049726 303.138184 171.984408 256.010452 171.984408C208.88272 171.984408 170.68757 210.049726 170.68757 256.993511" />
    <glyph glyph-name="list"
      unicode="&#xEA10;"
      horiz-adv-x="512" d=" M494.933333 494.9333333L17.0666667 494.9333333L17.0666667 17.066667L494.933333 17.066667L494.933333 494.9333333zM512 0L0 0L2e-13 512L512 511.9999999999998L512 0z M290.133333 409.6L290.133333 102.4L307.2 102.4L307.2 409.6z M375.466667 409.6L375.466667 102.4L392.5333330000001 102.4L392.5333330000001 409.6z M204.8 409.6L204.8 102.4L221.866667 102.4L221.866667 409.6z M119.466667 409.6L119.466667 102.4L136.533333 102.4L136.533333 409.6z" />
    <glyph glyph-name="menu"
      unicode="&#xEA11;"
      horiz-adv-x="512" d=" M3 416L515 416L515 480L3 480z M3 272L515 272L515 336L3 336z M3 128L515 128L515 192L3 192z" />
    <glyph glyph-name="message"
      unicode="&#xEA12;"
      horiz-adv-x="512" d=" M500.991962 345.856C485.216674 336.275862 291.441761 218.348138 281.7820280000001 212.488828C272.116607 206.616276 265.34683 205.848276 255.999986 205.848276C246.658832 205.848276 239.889055 206.616276 230.223633 212.488828C220.563901 218.348138 26.8003649 336.275862 11.0136998 345.856C-0.0910102292 352.589241 0.000011983899 344.690759 0.000011983899 338.586483L0.000011983899 95.746207C0.000011983899 81.869241 15.8833882 64 28.2112092 64L483.794452 64C496.116584 64 511.999961 81.869241 511.999961 95.746207L511.999961 338.586483C511.999961 344.690759 512.10805 352.589241 500.991962 345.856L500.991962 345.856zM16.8960103 412.0628966C30.7825867 403.369931 223.067012 283.17131 230.223633 278.6957240000001C237.385944 274.220138 246.658832 272.055172 255.999986 272.055172C265.34683 272.055172 274.619718 274.220138 281.7820280000001 278.6957240000001C288.93865 283.17131 481.217386 403.369931 495.109651 412.0628966C509.001917 420.7426207 522.154626 448 496.622896 448L15.3770771 448C-10.1318981 448 3.00374502 420.7426207 16.8960103 412.0628966L16.8960103 412.0628966z" />
    <glyph glyph-name="plus"
      unicode="&#xEA13;"
      horiz-adv-x="512" d=" M225.28 512L225.28 0L286.7200000000001 0L286.7200000000001 511.9999999999997z M512 286.7200000000001L0 286.7200000000001L1e-13 225.28L512 225.28z" />
    <glyph glyph-name="refresh"
      unicode="&#xEA14;"
      horiz-adv-x="512" d=" M24 184L128 184C141.256 184 152 173.248 152 160C152 146.744 141.256 136 128 136L86.344 136C123.952 82.784 185.856 48 256 48C370.872 48 464 141.128 464 256C464 269.248 474.744 280 488 280C501.256 280 512 269.248 512 256C512 114.608 397.384 0 256 0C170.032 0 94.312 42.568 48 107.624L48 64C48 50.744 37.256 40 24 40C10.744 40 0 50.744 0 64L0 160C0 173.248 10.744 184 24 184M488 328L464 328L450.784 328L384 328C370.7440000000001 328 360 338.7440000000001 360 352C360 365.248 370.7440000000001 376 384 376L425.336 376C387.752 429.16 326.088 464 256 464C141.128 464 48 370.872 48 256C48 242.7440000000001 37.256 232 24 232C10.744 232 0 242.7440000000001 0 256C0 397.384 114.616 512 256 512C341.856 512 417.632 469.6 464 404.712L464 448C464 461.248 474.744 472 488 472C501.256 472 512 461.248 512 448L512 352C512 338.7440000000001 501.256 328 488 328" />
    <glyph glyph-name="save"
      unicode="&#xEA15;"
      horiz-adv-x="512" d=" M288 320L352 320L352 448L288 448L288 320zM384 320C384 302.4 369.6 288 352 288L160 288C142.4 288 128 302.4 128 320L128 480L384 480L384 320L384 320zM421.504 512L64 512C28.8 512 0 483.2 0 448L0 64C0 28.8 28.8 0 64 0L448 0C483.2 0 512 28.8 512 64L512 411.968L421.504 512L421.504 512z" />
    <glyph glyph-name="search"
      unicode="&#xEA16;"
      horiz-adv-x="512" d=" M353.409588 200.228571L331.815375 200.228571L323.717545 208.731429C350.710312 239.908571 366.905972 282.422857 366.905972 327.771429C366.905972 429.8057143 288.626947 512 191.452986 512C94.2790245 512 16 429.8057143 16 327.771429C16 225.737143 94.2790245 143.542857 191.452986 143.542857C234.641413 143.542857 275.130564 160.548571 304.822608 188.891429L312.920438 180.388571L312.920438 157.714286L447.884273 16L488.373424 58.514286L353.409588 200.228571L353.409588 200.228571zM191.452986 200.228571C123.971068 200.228571 69.9855341 256.914286 69.9855341 327.771429C69.9855341 398.628571 123.971068 455.3142857 191.452986 455.3142857C258.934904 455.3142857 312.920438 398.628571 312.920438 327.771429C312.920438 256.914286 258.934904 200.228571 191.452986 200.228571L191.452986 200.228571z" />
    <glyph glyph-name="twitter"
      unicode="&#xEA17;"
      horiz-adv-x="512" d=" M1e-13 97.573717C8.21776949 96.620637 16.5797432 96.133057 25.0578295 96.133057C74.2708073 96.133057 119.564051 112.631651 155.513984 140.309619C109.548411 141.143105 70.7555946 170.979304 57.3895461 211.980158C63.8019533 210.775008 70.3829109 210.129195 77.1511467 210.129195C86.7323018 210.129195 96.011939 211.389542 104.827126 213.748324C56.7715279 223.22761 20.5650243 264.938675 20.5650243 314.940435C20.5650243 315.374657 20.5650243 315.8070390000001 20.5725155 316.237581C34.7363693 308.508062 50.9321921 303.8659350000001 68.1524269 303.330518C39.9670507 321.836468 21.4208859 353.424274 21.4208859 389.227344C21.4208859 408.139917 26.6010022 425.8675799 35.642796 441.1095059C87.4514503 378.673543 164.851677 337.588052 252.153305 333.284472C250.362925 340.837357 249.432152 348.71407 249.432152 356.802373C249.432152 413.7940022 296.465211 460 354.478394 460C384.69012 460 411.98967 447.4664414 431.151981 427.4094358C455.07865 432.0386832 477.55953 440.6274459 497.854874 452.452634C490.011661 428.3551565 473.357006 408.130718 451.668313 395.3579690000001C472.916903 397.852905 493.161681 403.400275 512 411.608173C497.916676 390.912714 480.106515 372.73611 459.584564 358.185996C459.786825 353.76098 459.887955 349.310205 459.887955 344.835511C459.887955 208.462224 354.2330590000001 51.209486 161.021837 51.209486C101.701452 51.209486 46.4862065 68.293175 1e-13 97.573717z" />
    <glyph glyph-name="video"
      unicode="&#xEA18;"
      horiz-adv-x="512" d=" M198.530612 177.77551L198.530612 334.510204L329.142857 256.142857L198.530612 177.77551L198.530612 177.77551zM512 386.755102L512 418.1020408C512 429.6481633 502.637714 439 491.102041 439L20.8979592 439C9.35706122 439 -2e-13 429.6481633 -2e-13 418.1020408L-2e-13 386.755102L52.244898 386.755102L52.244898 334.510204L-2e-13 334.510204L-2e-13 282.265306L52.244898 282.265306L52.244898 230.020408L-2e-13 230.020408L-2e-13 177.77551L52.244898 177.77551L52.244898 125.530612L-2e-13 125.530612L-2e-13 94.183673C-2e-13 82.689796 9.35706122 73.285714 20.8979592 73.285714L491.102041 73.285714C502.637714 73.285714 512 82.689796 512 94.183673L512 125.530612L459.755102 125.530612L459.755102 177.77551L512 177.77551L512 230.020408L459.755102 230.020408L459.755102 282.265306L512 282.265306L512 334.510204L459.755102 334.510204L459.755102 386.755102L512 386.755102L512 386.755102z" />
    <glyph glyph-name="wechat"
      unicode="&#xEA19;"
      horiz-adv-x="512" d=" M350.222639 333.067633C304.778886 330.697262 265.2621700000001 316.943493 233.179589 285.870092C200.764809 254.47627 185.967859 216.006939 190.012434 168.31846C172.250088 170.514566 156.071789 172.931782 139.801525 174.299663C134.182287 174.771864 127.5139 174.101039 122.754252 171.419616C106.955073 162.519016 91.8090323 152.46977 73.8571261 141.266257C77.1509677 156.140565 79.2830499 169.165422 83.0573607 181.69372C85.8331965 190.901625 84.547566 196.026497 76.0511437 202.022691C21.4991202 240.475157 -1.49583578 298.021754 15.7128446 357.267896C31.6340176 412.0768555 70.7321994 445.3163812 123.85783 462.6435075C196.369267 486.29099693 277.859472 462.1694335 321.951906 404.6921681C337.876833 383.9303469 347.641994 360.627639 350.222639 333.067633L350.222639 333.067633zM141.074018 351.528415C141.492551 362.364661 132.087742 372.127214 120.916833 372.453257C109.479413 372.7886690000001 100.072727 364.062333 99.738651 352.8101010000001C99.4008211 341.40609 108.137478 332.267516 119.657478 331.975201C131.078006 331.6866340000001 140.65173 340.424213 141.074018 351.528415L141.074018 351.528415zM250.194956 372.460752C238.982757 372.254633 229.508504 362.720685 229.707449 351.841341C229.912023 340.564749 239.2061 331.742849 250.735484 331.881511C262.294897 332.020173 271.061584 340.935763 270.952727 352.450329C270.857009 363.753155 261.604223 372.668745 250.194956 372.460752L250.194956 372.460752z M452.318592 50.215927C437.928915 56.613117 424.72915 66.210774 410.675425 67.676094C396.676129 69.135793 381.959883 61.072786 367.313079 59.577485C322.698886 55.020378 282.729853 67.434373 249.772669 97.863183C187.092082 155.745191 196.048328 244.496355 268.567273 291.929996C333.019589 334.086986 427.542522 320.033407 472.984399 261.538662C512.64 210.496062 507.979824 142.739072 459.568798 99.858791C445.560117 87.448543 440.518944 77.236276 449.507097 60.876036C451.166217 57.855453 451.355777 54.031006 452.318592 50.215927L452.318592 50.215927zM288.519883 208.551047C297.680704 208.541678 305.223695 215.699634 305.570909 224.733275C305.936891 234.297204 298.232493 242.318987 288.64 242.358337C279.1432260000001 242.401435 271.187331 234.267223 271.517654 224.845703C271.829208 215.843917 279.424751 208.56229 288.519883 208.551047L288.519883 208.551047zM394.112375 242.3208610000001C385.223695 242.382697 377.67132 235.117933 377.309091 226.151749C376.92434 216.563461 384.388504 208.689709 393.892786 208.665349C403.085513 208.635368 410.348856 215.575963 410.682933 224.708915C411.039531 234.3196900000001 403.571613 242.255277 394.112375 242.3208610000001L394.112375 242.3208610000001z" />
    <glyph glyph-name="zoom-in"
      unicode="&#xEA1A;"
      horiz-adv-x="512" d=" M272 296L216 296L216 240C216 226.7440000000001 205.256 216 192 216C178.744 216 168 226.7440000000001 168 240L168 296L112 296C98.744 296 88 306.7440000000001 88 320C88 333.256 98.744 344 112 344L168 344L168 400C168 413.256 178.744 424 192 424C205.256 424 216 413.256 216 400L216 344L272 344C285.256 344 296 333.256 296 320C296 306.7440000000001 285.256 296 272 296M192 464C112.472 464 48 399.528 48 320C48 240.472 112.472 176 192 176C271.528 176 336 240.472 336 320C336 399.528 271.528 464 192 464M512 48C512 21.488 490.512 0 464 0C450.744 0 438.7440000000001 5.376 430.056 14.064L289.384 154.736C260.808 137.856 227.592 128 192 128C85.96 128 0 213.96 0 320C0 426.04 85.96 512 192 512C298.04 512 384 426.04 384 320C384 284.408 374.144 251.2 357.264 222.616L497.944 81.944C506.624 73.256 512 61.256 512 48" />
    <glyph glyph-name="zoom-out"
      unicode="&#xEA1B;"
      horiz-adv-x="512" d=" M272 296L112 296C98.744 296 88 306.7440000000001 88 320C88 333.256 98.744 344 112 344L272 344C285.256 344 296 333.256 296 320C296 306.7440000000001 285.256 296 272 296M192 464C112.472 464 48 399.528 48 320C48 240.472 112.472 176 192 176C271.528 176 336 240.472 336 320C336 399.528 271.528 464 192 464M512 48C512 21.488 490.512 0 464 0C450.744 0 438.7440000000001 5.376 430.056 14.064L289.384 154.736C260.816 137.856 227.592 128 192 128C85.96 128 0 213.96 0 320C0 426.04 85.96 512 192 512C298.04 512 384 426.04 384 320C384 284.408 374.144 251.2 357.264 222.616L497.944 81.944C506.624 73.256 512 61.256 512 48" />
    <glyph glyph-name="youtube"
      unicode="&#xEA1C;"
      horiz-adv-x="512" d=" M508.955 296.702C508.041 305.203 507.275 314.766 505.538 323.093C504.021 330.36 499.477 337.344 493.808 342.077C483.02 351.083 471.075 350.855 457.106 351.303C452.162 351.461 447.318 351.951 442.376 352.099C422.581 352.694 403.072 353.366 383.249 353.454L365.311 353.468L334.678 353.468C330.7 353.391 326.746 353.152 322.782 353.144C312.748 353.124 303.221 352.733 293.218 352.305C288.33 352.097 283.34 352.247 278.471 351.851C273.499 351.4460000000001 268.669 351.25 263.687 351.11C254.141 350.843 247.16 350.1670000000001 238.784 345.284C232.528 341.6380000000001 227.37 335.4460000000001 224.496 328.841C218.913 316.015 216.758 262.003 217.642 244.426C218.495 227.4700000000001 219.168 205.55 222.671 188.963C226.137 172.547 239.636 162.382 256.355 161.177C287.6070000000001 158.923 314.155 158.97 345.129 158.093C345.511 158.082 345.892 158.072 346.274 158.064L378.963 158.064C382.88 158.138 386.765 158.362 390.689 158.401C395.868 158.459 401.028 158.309 406.21 158.4070000000001C420.846 158.675 435.516 159.457 450.087 160.134C455.082 160.366 459.957 160.382 464.964 160.7820000000001C474.772 161.57 481.044 161.242 489.752 166.722C505.674 176.738 506.772 191.441 508.374 209.242C509.236 218.815 510.03 228.174 510.563 237.784C511.617 256.799 510.996 277.753 508.955 296.702zM303.495 304.4940000000001L282.673 304.294L282.673 195.268L264.557 194.948C263.769 197.76 264.237 242.688 264.237 249.621L264.237 304.295L244.397 304.507C244.166 305.17 244.183 304.844 244.183 305.589L244.183 321.764L303.496 321.564L303.496 304.4940000000001L303.495 304.4940000000001zM355.447 195.268L338.628 195.268L338.628 205.296C337.6600000000001 205.021 334.589 200.855 333.426 200.149L329.534 197.264C329.007 196.805 324.305 194.611 323.568 194.46C320.186 193.768 319.5590000000001 193.356 316.02 194.0080000000001C311.125 194.908 308.198 198.023 307.529 202.986C306.308 212.075 306.6070000000001 210.113 306.6070000000001 219.5320000000001L306.6070000000001 289.0900000000001L323.102 289.0900000000001L323.0950000000001 217.585C323.094 216.652 323.188 215.967 323.237 215.1570000000001C323.43 211.964 323.753 207.217 330.163 209.234C332.016 209.815 338.355 215.066 338.64 217.2L338.628 289.0900000000001L355.447 289.0900000000001L355.447 195.268L355.447 195.268zM420.459 219.207L419.716 208.625C419.028 204.535 418.721 203.516 416.84 199.856C412.8570000000001 192.115 401.632 191.878 393.561 198.468L387.467 204.002L387.467 195.267L370.648 194.947C371.465 197.759 370.971 250.7150000000001 370.971 258.354C370.971 262.414 370.722 319.491 370.9700000000001 321.7630000000001L387.467 321.7630000000001L387.467 280.352C389.294 280.974 392.912 287.247 400.686 289.779C407.336 291.942 412.99 289.678 416.906 284.241C419.351 280.841 420.155 274.466 420.128 270.317C420.113 268.3160000000001 420.475 266.885 420.46 264.826L420.46 219.207L420.459 219.207zM455.146 210.23C457.649 208.137 468.288 206.361 468.316 219.216L468.648 227.296L485.467 227.296C485.467 223.136 485.576 214.664 484.388 210.9070000000001C476.181 184.962 437.65 189.478 435.254 215.891C434.391 225.405 434.363 222.567 434.363 232.793L434.363 250.586C434.363 264.99 433.933 282.001 449.531 288.4700000000001C462.894 294.012 479.787 288.459 483.73 273.116C486.24 263.356 485.384 250.08 485.264 239.5710000000001C483.443 238.697 455.625 239.264 451.183 239.264L451.183 222.764C451.185 217.696 451.288 213.458 455.146 210.23z M62.089 194.622C62.089 210.959 61.769 229.867 62.07 246.079C62.11 248.214 66.625 261.299 67.45 264.315L84.556 322.163L65 322.411C64.957 322.344 64.905 322.312 64.891 322.198L62.448 313.641C62.049 311.343 59.475 302.57 59.258 301.303C58.798 298.622 54.008 281.111 52.965 276.8640000000001L52.386 273.5610000000001C51.729 274.592 43.403 306.522 42.268 310.027C41.268 313.115 40.199 319.435 38.802 322.411L18.425 322.411C18.418 318.925 27.897 295.425 29.185 290.144C30.437 285.002 33.189 279.349 34.569 274.18L39.399 257.334C40.262 254.402 40.86 251.713 41.475 248.732C42.943 241.616 41.394 199.674 42.041 195.595C42.336 193.731 44.318 194.286 45.917 194.296C49.551 194.318 59.869 194 62.089 194.622L62.089 194.622z M181.438 204.003L181.636 194.494L199.029 194.497C199.613 196.491 199.266 276.8690000000001 199.23 288.775L181.413 288.775C181.417 288.182 181.434 287.185 181.438 285.529C181.48 262.343 181.361 239.895 181.76 216.623C180.216 214.303 177.054 212.096 174.97 210.797C173.71 210.012 171.339 209.206 169.878 209.569C167.922 210.05 167.713 211.752 167.24 213.419C166.388 216.415 166.837 277.483 166.88 288.775L149.041 288.775C149.026 288.562 149.063 288.361 149.056 288.153C148.815 281.832 149.096 274.796 149.096 268.383L149.09 209.175C149.066 204.86 150.517 197.287 154.64 194.99C157.228 193.551 158.908 192.942 162.377 192.986C165.093 193.017 167.946 193.759 170.34 195.047C177.722 199.016 179.063 202.477 181.438 204.003L181.438 204.003z M102.196 218.238C102.02 219.312 102.196 256.514 102.196 258.678C102.196 263.557 101.634 271.504 106.654 274.277C108.894 275.5130000000001 112.603 275.08 114.574 273.322C116.468 271.634 117.231 268.472 117.65 266.049C117.935 264.394 117.721 228.341 117.721 225.679C117.721 220.888 118.314 212.674 113.145 210.199C106.923 207.219 103.08 212.812 102.196 218.238L102.196 218.238zM105.107 290.707C79.905 286.109 84.083 258.39 84.083 237.002C84.083 227.131 83.318 212.704 88.721 204.114C94.624 194.724 104.232 192.228 114.7 193.437C124.027 194.513 131.956 202.207 134.142 211.193C136.807 222.158 135.834 235.641 135.834 247.031C135.834 257.063 136.763 271.242 131.254 279.979C125.667 288.835 115.222 292.551 105.107 290.707z M393.614 275.175C385.391 272.755 387.468 269.358 387.468 260.618L387.468 219.207C387.468 217.525 387.385 215.6570000000001 387.443 214.005C387.552 210.803 394.467 208.19 398.086 208.912C404.229 210.139 403.965 219.053 403.965 223.736L403.965 244.443C403.965 251.1670000000001 404.249 258.516 403.976 265.159C403.725 271.305 400.6720000000001 277.255 393.614 275.175L393.614 275.175z M451.419 253.0900000000001L468.414 253.0900000000001C468.736 253.915 470.241 268.7920000000001 465.832 273.331C463.978 275.238 462.777 275.511 459.911 275.508C451.66 275.5 451.184 267.356 451.184 260.943C451.185 258.9360000000001 450.782 254.725 451.419 253.0900000000001z" />
    <glyph glyph-name="box"
      unicode="&#xEA1D;"
      horiz-adv-x="512" d=" M359.979945 219.526869C359.979945 219.526869 359.979945 193.412706 334.01455 193.412706L178.013202 193.412706C151.995563 193.412706 151.995563 219.526869 151.995563 219.526869L151.995563 271.755194L188.409809 271.755194L188.409809 229.972534L323.513454 229.972534L323.513454 271.755194L359.979945 271.755194L359.979945 219.526869L359.979945 219.526869zM490.015898 360.5433480000001L474.603842 376.002933L474.603842 334.429185L37.3716652 334.429185L37.3716652 376.002933C37.3716652 376.002933 37.3716652 376.002933 21.9596097 360.5433480000001C6.59979853 345.135992 -4.42373945 340.957726 1.74108274 308.315023C7.90590493 275.7767760000001 37.737375 97.469271 42.1781368 73.287556C47.0368526 46.860023 73.9948886 47.173393 73.9948886 47.173393L438.032863 47.173393C438.032863 47.173393 464.938655 46.860023 469.797371 73.287556C474.238133 97.469271 504.069603 275.7767760000001 510.234425 308.315023C516.451491 340.957726 505.427953 345.135992 490.015898 360.5433480000001L490.015898 360.5433480000001zM360.032189 465L151.995563 465C151.995563 465 125.977923 465 125.977923 438.8858371L385.997584 438.8858371C385.997584 465 360.032189 465 360.032189 465L360.032189 465zM438.032863 386.657511C438.032863 412.7716742 412.015224 412.7716742 412.015224 412.7716742L99.9602837 412.7716742C99.9602837 412.7716742 73.9948886 412.7716742 73.9948886 386.657511L73.9948886 360.5433480000001L438.032863 360.5433480000001L438.032863 386.657511L438.032863 386.657511z" />
    <glyph glyph-name="cd"
      unicode="&#xEA1E;"
      horiz-adv-x="512" d=" M256 172.625251C209.92 172.625251 172.521739 210.012108 172.521739 256.078058C172.521739 302.1996430000001 209.92 339.530865 256 339.530865C302.08 339.530865 339.478261 302.1996430000001 339.478261 256.078058C339.478261 210.012108 302.08 172.625251 256 172.625251L256 172.625251zM0 256.078058C0 114.764638 114.587826 0.156116 256 0.156116C397.356522 0.156116 512 114.764638 512 256.078058C512 397.447113 397.356522 512 256 512C114.587826 512 0 397.447113 0 256.078058z" />
    <glyph glyph-name="clipping"
      unicode="&#xEA1F;"
      horiz-adv-x="512" d=" M312.531202 170.666667L369.437442 170.666667L369.437442 199.111111L312.531202 199.111111L312.531202 170.666667zM141.812481 113.777778L369.437442 113.777778L369.437442 142.222222L141.812481 142.222222L141.812481 113.777778zM227.171841 227.555556L369.437442 227.555556L369.437442 256L227.171841 256L227.171841 227.555556zM141.812481 227.555556L198.718721 227.555556L198.718721 256L141.812481 256L141.812481 227.555556zM141.812481 284.444444L227.171841 284.444444L227.171841 398.222222L141.812481 398.222222L141.812481 284.444444zM255.624962 341.3333330000001L369.437442 341.3333330000001L369.437442 398.222222L255.624962 398.222222L255.624962 341.3333330000001zM255.624962 284.444444L369.437442 284.444444L369.437442 312.888889L255.624962 312.888889L255.624962 284.444444zM141.812481 170.666667L284.078082 170.666667L284.078082 199.111111L141.812481 199.111111L141.812481 170.666667zM84.9062404 56.888889L426.343683 56.888889L426.343683 455.1111111L84.9062404 455.1111111L84.9062404 56.888889zM426.343683 512L84.9062404 512C53.6078082 512 28 486.4 28 455.1111111L28 56.888889C28 25.6 53.6078082 0 84.9062404 0L426.343683 0C457.642115 0 483.249923 25.6 483.249923 56.888889L483.249923 455.1111111C483.249923 486.4 457.642115 512 426.343683 512L426.343683 512z" />
    <glyph glyph-name="video-play"
      unicode="&#xEA20;"
      horiz-adv-x="512" d=" M255.545697 0.908607C396.679688 0.908607 511.091393 115.320312 511.091393 256.454303C511.091393 397.588295 396.679688 512 255.545697 512C114.411705 512 0 397.588295 0 256.454303C0 115.320312 114.411705 0.908607 255.545697 0.908607zM255.545697 46.338953C139.502193 46.338953 45.4303461 140.4108 45.4303461 256.454303C45.4303461 372.497807 139.502193 466.5696539 255.545697 466.5696539C371.5892 466.5696539 465.661047 372.497807 465.661047 256.454303C465.661047 140.4108 371.5892 46.338953 255.545697 46.338953z M176 144L176 368L368 256z" />
    <glyph glyph-name="youtube-play"
      unicode="&#xEA21;"
      horiz-adv-x="512" d=" M365.714 256.001C365.714 263.049 362.858 268.1910000000001 357.143 271.43L210.858 362.858C204.953 366.668 198.763 366.858 192.286 363.43C186 360.001 182.858 354.668 182.858 347.43V164.573C182.858 157.335 186.001 152.002 192.286 148.573C195.334 147.05 198.286 146.288 201.143 146.288C204.952 146.288 208.19 147.24 210.857 149.144L357.142 240.5730000000001C362.8570000000001 243.81 365.714 248.9530000000001 365.714 256.001zM512 256.001C512 237.715 511.904 223.43 511.715 213.144C511.525 202.859 510.715 189.859 509.286 174.144C507.857 158.43 505.715 144.382 502.857 132.001C499.809 118.0960000000001 493.2380000000001 106.382 483.1420000000001 96.858C473.047 87.334 461.2380000000001 81.81 447.7140000000001 80.286C405.4280000000001 75.524 341.523 73.143 255.9990000000001 73.143S106.5700000000001 75.524 64.2850000000001 80.286C50.7610000000001 81.81 38.9040000000001 87.334 28.7140000000001 96.858C18.5240000000001 106.381 11.9040000000001 118.095 8.8570000000001 132.001C6.1900000000001 144.382 4.1430000000001 158.43 2.7140000000001 174.1440000000001C1.2850000000001 189.859 0.4760000000001 202.859 0.2850000000001 213.1440000000001C0.095 223.43 0 237.7150000000001 0 256.001C0 274.2870000000001 0.095 288.572 0.286 298.858S1.286 322.144 2.715 337.858S6.286 367.62 9.144 380.001C12.191 393.906 18.763 405.62 28.858 415.144C38.954 424.668 50.763 430.192 64.287 431.716C106.573 436.478 170.478 438.8590000000001 256.001 438.8590000000001S405.43 436.478 447.716 431.716C461.239 430.192 473.097 424.668 483.287 415.144C493.477 405.621 500.097 393.906 503.143 380.001C505.81 367.62 507.858 353.572 509.287 337.858S511.525 309.144 511.716 298.858C511.904 288.572 512 274.286 512 256.001z" />
    <glyph glyph-name="reset"
      unicode="&#xEA22;"
      horiz-adv-x="512" d=" M289.388936 479C168.306383 479 69.8825532 382.0219190000001 66.9412766 261.302995L0 261.302995L100.166809 149.677467L200.333617 261.302995L122.553191 261.302995C125.494468 351.202383 199.026383 423.1872361 289.388936 423.1872361C381.603404 423.1872361 456.333617 348.207552 456.333617 255.748944C456.333617 163.290336 381.603404 88.310652 289.388936 88.310652C252.405106 88.310652 218.253617 100.39888 190.58383 120.763733L152.292766 79.816222C190.093617 50.194619 237.698723 32.497888 289.388936 32.497888C412.323404 32.497888 512 132.416349 512 255.748944C512 379.027088 412.323404 479 289.388936 479" />
    <glyph glyph-name="citation"
      unicode="&#xEA23;"
      horiz-adv-x="512" d=" M313.666 94.044C300.73 94.044 289.939 102.45 287.426 114.484L287.198 115.752L282.593 146.168C280.491 159.264 288.177 171.668 300.978 175.7579999999999L301.721 175.981C321.262 181.509 334.383 188.6039999999999 343.09 199.025C328.832 203.681 315.554 210.995 304.144 220.633C283.72 237.882 270.233 261.815 266.151 288.036C261.345 316.79 268.181 345.762 285.41 369.64C303.71 395.005 331.301 411.688 363.095 416.612L363.497 416.671C369.729 417.525 376.067 417.956 382.339 417.956C411.207 417.956 439.104 408.722 460.886 391.955C485.4399999999999 373.055 501.9469999999999 345.233 508.626 311.495L508.868 310.023C515.3430000000001 260.877 502.315 212.721 472.186 174.425C436.974 129.668 381.964 101.196 317.274 94.251C316.063 94.114 314.851 94.044 313.666 94.044zM369.979 370.853C350.6 367.8 333.898 357.759 322.932 342.563C312.976 328.761 309.025 312.072 311.8060000000001 295.5710000000001L311.8590000000001 295.248C316.669 264.0370000000001 344.36 240.5660000000001 377.703 239.438L406.793 238.453L399.272 210.335C391.168 180.048 374.366 161.398 355.918 149.403C388.848 160.034 416.431 178.394 435.82 203.04C458.3469999999999 231.675 467.7679999999999 266.305 463.0889999999999 303.237C458.4839999999999 325.78 448.248 343.291 432.661 355.288C418.925 365.861 401.054 371.684 382.3399999999999 371.684C378.228 371.683 374.07 371.404 369.979 370.853zM50.908 94.044C37.971 94.044 27.18 102.451 24.667 114.49L24.5 115.375L19.368 145.876C17.105 159.078 24.807 171.638 37.706 175.755L38.542 176.006C57.998 181.421 71.08 188.572 79.852 199.283C39.826 212.6760000000001 9.359 246.454 2.858 288.1570000000001C-1.7 316.993 5.376 346.053 22.793 369.9310000000001C41.177 395.136 68.715 411.713 100.337 416.612L100.771 416.675C107.045 417.526 113.417 417.956 119.709 417.956C183.724 417.956 233.056 376.102 245.388 311.329L245.566 310.261C252.494 261.56 239.893 213.64 210.086 175.326C174.872 130.067 119.628 101.277 54.524 94.254C53.311 94.114 52.095 94.044 50.908 94.044zM107.208 370.85C87.917 367.808 71.222 357.805 60.182 342.666C50.064 328.794 45.941 311.986 48.574 295.336C53.389 264.449 81.199 240.956 114.705 239.426L143.8 238.099L135.925 210.059C127.381 179.638 110.529 161.019 92.194 149.116C125.827 159.804 153.941 178.518 173.566 203.744C195.811 232.335 204.887 266.714 199.833 303.206C187.455 366.738 135.404 371.684 119.709 371.684C115.562 371.683 111.356 371.403 107.208 370.85z" />
    <glyph glyph-name="link"
      unicode="&#xEA24;"
      horiz-adv-x="512" d=" M475.973 477.646L475.965 477.639C427.867 525.004 350.2050000000001 524.79 302.389 476.969L207.341 381.919C235.1210000000001 385.603 263.711 381.795 289.8050000000001 370.482L349.3420000000001 430.017C371.3850000000001 452.063 407.1700000000001 452.166 429.3540000000001 430.349C451.1680000000001 408.165 451.0650000000001 372.376 429.0220000000001 350.337L324.283 245.592C302.25 223.561 266.488 223.451 244.304 245.235C242.866 246.698 241.519 248.2190000000001 240.269 249.794C230.759 255.2390000000001 218.404 253.935 210.29 245.823L181.834 217.362C186.18 210.7620000000001 191.232 204.489 196.98 198.6570000000001L196.974 198.649C197.085 198.538 197.202 198.4260000000001 197.318 198.311C197.429 198.2000000000001 197.541 198.081 197.651 197.971L197.657 197.977C245.757 150.614 323.42 150.827 371.232 198.649L475.972 303.3870000000001C523.784 351.201 524.007 428.8640000000001 476.642 476.962L476.648 476.9690000000001C476.539 477.079 476.421 477.191 476.302 477.301C476.191 477.418 476.082 477.529 475.973 477.646M304.658 132.072L209.613 37.021C161.799 -10.793 84.136 -11.014 36.038 36.351L36.031 36.343C35.921 36.454 35.809 36.572 35.7 36.691C35.589 36.8 35.471 36.912 35.354 37.021L35.36 37.029C-12.005 85.127 -11.79 162.787 36.031 210.603L140.769 315.342C188.586 363.156 266.247 363.379 314.344 316.0130000000001L314.352 316.019C314.463 315.909 314.573 315.79 314.684 315.6810000000001C314.793 315.5710000000001 314.913 315.4600000000001 315.03 315.342L315.024 315.3350000000001C320.772 309.496 325.823 303.227 330.1720000000001 296.627L301.711 268.169C293.6 260.0560000000001 281.24 258.75 271.7340000000001 264.1960000000001C270.482 265.771 269.142 267.291 267.697 268.757C245.513 290.539 209.752 290.429 187.72 268.397L82.977 163.66C60.931 141.615 60.828 105.832 82.645 83.648C104.827 61.8320000000001 140.618 61.935 162.656 83.978L222.193 143.515C248.293 132.195 276.8830000000001 128.389 304.658 132.072" />
    <glyph glyph-name="pin"
      unicode="&#xEA25;"
      horiz-adv-x="512" d=" M509.2 339.4940000000001C511.246 349.112 508.316 358.9890000000001 501.394 365.8880000000001L365.874 501.391C360.4290000000001 506.835 353.1960000000001 509.832 345.504 509.832C343.443 509.832 341.38 509.609 339.428 509.184C338.898 509.069 338.37 508.941 337.85 508.798L336.8540000000001 509.795L336.526 508.4C328.28 505.706 321.6760000000001 499.425 318.5080000000001 491.047C310.815 470.314 308.487 447.2940000000001 311.692 424.999L187.97 315.9700000000001C172.596 320.837 156.85 323.298 141.004 323.298C92.004 323.298 58.011 299.927 54.387 297.326C47.442 292.397 43.061 284.704 42.36 276.135C41.702 267.685 44.763 259.42 50.717 253.496L131.741 172.477L0.499 41.223V0.4979999999999H41.227L172.477 131.767L253.468 50.7819999999999C258.904 45.3149999999999 266.146 42.3019999999999 273.871 42.3019999999999C274.655 42.3019999999999 275.438 42.3339999999999 276.1620000000001 42.3959999999999C284.558 43.0549999999999 292.23 47.3609999999999 297.209 54.2099999999999L297.342 54.3959999999999C301.881 60.7789999999999 338.8930000000001 116.0419999999999 315.992 187.9709999999999L424.992 311.6939999999999C431.5080000000001 310.7449999999999 438.093 310.2649999999999 444.69 310.2649999999999C460.731 310.2649999999999 476.334 313.0439999999999 491.165 318.5649999999999C499.408 321.6789999999999 505.669 328.2539999999999 508.394 336.5349999999999L509.813 336.8699999999999L508.804 337.8799999999999C508.948 338.413 509.081 338.952 509.2 339.4940000000001zM256.618 182.225C266.901 159.246 266.972 138.249 263.793 121.9L121.855 263.828C127.667 264.967 134.061 265.695 140.911 265.695C154.857 265.695 168.755 262.642 182.211 256.626C185.939 254.958 189.897 254.111 193.977 254.111C194.023 254.111 194.067 254.1180000000001 194.114 254.1180000000001L254.1 194.1320000000001C254.076 190.091 254.899 186.025 256.618 182.225zM358.161 389.149C359.826 390.13 361.373 391.269 362.775 392.541C368.769 397.928 372.136 405.613 372.287 413.504L413.49 372.307C405.761 372.174 398.332 368.903 393.1070000000001 363.354C391.632 361.805 390.3440000000001 360.105 389.2530000000001 358.271L287.097 242.296L242.295 287.098L358.161 389.149z" />
    <glyph glyph-name="location-onsite"
      unicode="&#xEA26;"
      horiz-adv-x="500" d=" M482.139 35.622H17.863C7.993 35.622 0.001 27.655 0.001 17.782C0.001 7.97 7.993 0 17.863 0H482.139C492.007 0 500 7.97 500 17.782C500 27.655 492.007 35.622 482.139 35.622z M52.992 53.404H118.982C137.205 53.404 151.98 68.719 151.98 87.609V412.497C151.98 431.387 137.205 446.689 118.982 446.689H52.992C34.77 446.689 19.992 431.385 19.992 412.497V87.609C19.995 68.72 34.771 53.404 52.992 53.404zM118.985 87.609H52.992V121.817H118.982V87.609H118.985zM52.992 155.995V263.48H118.982V155.995H52.992zM52.992 412.498H118.982V378.292H52.992V412.498zM118.985 344.101V300.981H52.992V344.101H118.985z M217.978 53.404H283.973C302.1960000000001 53.404 316.971 68.719 316.971 87.609V412.497C316.971 431.387 302.1960000000001 446.689 283.973 446.689H217.978C199.755 446.689 184.981 431.385 184.981 412.497V87.609C184.98 68.72 199.755 53.404 217.978 53.404zM283.975 87.609H217.978V121.817H283.973V87.609H283.975zM217.978 155.995V263.505H283.973V155.995H217.978zM217.978 412.498H283.973V378.292H217.978V412.498zM283.975 344.101V301.005H217.978V344.101H283.975z M382.964 53.404H448.96C467.183 53.404 481.958 68.719 481.958 87.609V378.29C481.958 397.18 467.183 412.495 448.96 412.495H382.964C364.746 412.495 349.971 397.18 349.971 378.29V87.609C349.971 68.72 364.746 53.404 382.964 53.404zM448.96 87.609H382.964V121.817H448.96V87.609zM382.964 155.995V238.55H448.96V155.995H382.964zM382.964 378.29H448.96V344.098H382.964V378.29zM448.96 309.895V276.064H382.964V309.895H448.96z" />
    <glyph glyph-name="location-online"
      unicode="&#xEA27;"
      horiz-adv-x="500" d=" M428.562 424.673C427.558 426.021 426.342 427.233 425.664 427.693C378.491 474.315 316.108 500 250 500C183.831 500 121.405 474.282 74.869 428.147C73.673 427.202 72.593 426.121 72.28 425.632C25.673 378.462 0 316.0950000000001 0 250L0.133 244.424C1.553 180.608 27.063 120.324 71.2 75.613C72.28 74.101 73.655 72.744 74.428 72.267C121.567 25.684 183.92 0.029 250 0C316.084 0 378.462 25.684 424.746 71.584C426.343 72.739 427.705 74.102 427.939 74.634C472.832 120.1470000000001 498.3389999999999 180.313 499.731 243.03C499.882 243.964 499.998 244.864 499.882 246.392C499.941 247.603 499.999 248.788 499.999 250C500 315.978 474.404 378.271 428.562 424.673zM347.656 400.435C340.314 413.825 332 426.5080000000001 322.885 438.226C318.564 443.791 314.037 449.19 309.363 454.398C335.879 446.676 360.737 433.789 382.517 416.387C371.392 410.229 359.731 404.89 347.656 400.435zM310.933 389.871C297.29 387 283.086 385.12 268.555 384.248V443.077C276.131 435.8880000000001 284.834 426.6670000000001 293.56 415.437C299.775 407.419 305.605 398.853 310.933 389.871zM347.4790000000001 264.397H268.555V346.887C288.9460000000001 347.953 308.892 350.837 327.9790000000001 355.498C339.429 327.252 345.996 296.6670000000001 347.4790000000001 264.397zM363.5470000000001 133.436C375.151 162.909 382.102 194.395 384.2630000000001 227.274H461.592C456.944 184.247 439.068 143.231 410.571 110.469C395.625 119.526 379.8830000000001 127.222 363.5470000000001 133.436zM268.555 153.113V227.273H347.0660000000001C344.932 197.856 338.599 170.068 328.184 144.472C309.038 149.148 289.033 152.021 268.555 153.113zM322.886 61.821C332.002 73.566 340.318 86.261 347.657 99.58C359.698 95.1420000000001 371.358 89.814 382.545 83.631C360.735 66.229 335.909 53.358 309.332 45.604C314.038 50.811 318.5660000000001 56.226 322.886 61.821zM294.152 85.314C285.273 73.803 276.338 64.335 268.554 56.964V115.766C283.085 114.91 297.289 113.015 311.02 110.146C305.874 101.504 300.2200000000001 93.188 294.152 85.314zM462.3 264.397H384.649C383.165 300.4550000000001 376.063 334.755 363.575 366.553C379.882 372.798 395.655 380.5060000000001 410.572 389.545C441.021 354.55 459.194 310.5900000000001 462.3 264.397zM115.723 227.273C117.898 194.365 124.853 162.876 136.438 133.464C120.117 127.221 104.358 119.526 89.43 110.468C60.933 143.261 43.028 184.247 38.413 227.275H115.723V227.273zM152.33 99.58C159.64 86.262 167.955 73.566 177.1 61.789C181.42 56.226 185.948 50.81 190.654 45.603C164.123 53.325 139.28 66.196 117.456 83.63C128.625 89.814 140.3 95.142 152.33 99.58zM188.979 110.146C202.695 113.015 216.915 114.91 231.429 115.766V56.994C223.661 64.365 214.725 73.804 205.846 85.314C199.765 93.218 194.115 101.533 188.979 110.146zM152.95 227.273H231.43V153.113C210.938 152.016 190.948 149.148 171.83 144.472C161.427 170.1 155.081 197.886 152.95 227.273zM136.438 366.553C123.92 334.755 116.832 300.4700000000001 115.337 264.397H37.7C40.806 310.577 58.977 354.5370000000001 89.442 389.545C104.387 380.4890000000001 120.147 372.779 136.438 366.553zM231.43 346.887V264.397H152.476C153.94 296.935 160.435 327.533 171.83 355.5420000000001C190.978 350.868 210.968 347.968 231.43 346.887zM177.097 438.225C167.982 426.493 159.683 413.81 152.328 400.435C140.282 404.891 128.609 410.23 117.452 416.386C139.263 433.8 164.105 446.673 190.622 454.383C185.933 449.189 181.417 443.79 177.097 438.225zM205.833 414.67C214.741 426.212 223.663 435.665 231.43 443.034V384.25C216.87 385.122 202.665 387.001 188.98 389.887C194.127 398.495 199.783 406.7970000000001 205.833 414.67z" />
  </font>
</defs>
</svg>
