<?xml version="1.0" standalone="no"?>
<!DOCTYPE svg PUBLIC "-//W3C//DTD SVG 1.1//EN" "http://www.w3.org/Graphics/SVG/1.1/DTD/svg11.dtd" >
<svg xmlns="http://www.w3.org/2000/svg">
<metadata></metadata>
<defs>
<font id="aaadisplay" horiz-adv-x="1163" >
<font-face units-per-em="2048" ascent="1532" descent="-516" />
<missing-glyph horiz-adv-x="442" />
<glyph horiz-adv-x="0" />
<glyph horiz-adv-x="682" />
<glyph unicode=" "  horiz-adv-x="442" />
<glyph unicode="&#x09;" horiz-adv-x="442" />
<glyph unicode="&#xa0;" horiz-adv-x="442" />
<glyph unicode="!" horiz-adv-x="524" d="M180 0v168h164v-168h-164zM180 1411h164l-22 -1022h-119z" />
<glyph unicode="&#x22;" horiz-adv-x="786" d="M143 1251v158h140v-158l-25 -358h-90zM504 1251v158h139v-158l-25 -358h-90z" />
<glyph unicode="#" horiz-adv-x="1241" d="M39 358v109h242l86 485h-240v109h258l61 348h127l-61 -348h338l61 348h127l-61 -348h225v-109h-244l-86 -485h242v-109h-260l-61 -358h-127l61 358h-338l-61 -358h-127l61 358h-223zM408 467h337l86 485h-337z" />
<glyph unicode="$" horiz-adv-x="1130" d="M94 182l2 2l109 78q51 -76 147 -123t201 -47q154 0 243 75t89 200q0 64 -26 113t-70 80.5t-100.5 56.5t-119.5 45.5t-126 42t-119.5 52t-100.5 69.5t-70 100t-26 139q0 155 102 251t265 114v196h131v-194q238 -20 352 -199l-103 -74q-52 77 -134.5 116.5t-176.5 39.5 q-135 0 -220 -67.5t-85 -176.5q0 -58 26 -103t70 -75.5t100.5 -55.5t119.5 -47t126 -46t119.5 -56.5t100.5 -73t70 -102.5t26 -139q0 -168 -107.5 -271t-281.5 -122v-205h-131v202q-275 16 -402 205z" />
<glyph unicode="%" horiz-adv-x="1564" d="M66 1087q0 63 18 121.5t52.5 108t92.5 79t131 29.5q74 0 132 -29.5t92.5 -79t52.5 -108t18 -121.5t-18 -121.5t-52.5 -108t-92.5 -79.5t-132 -30q-73 0 -131 30t-92.5 79t-52.5 108t-18 122zM186 1087q0 -100 46.5 -171.5t127.5 -71.5q82 0 128.5 71.5t46.5 171.5 q0 101 -46 171.5t-129 70.5q-82 0 -128 -71t-46 -171zM367 -25l714 1459h117l-715 -1459h-116zM907 322q0 63 18 121.5t53 107.5t93 78.5t131 29.5q74 0 132 -29.5t92.5 -78.5t52.5 -107.5t18 -121.5t-18 -122t-52.5 -108.5t-92.5 -79.5t-132 -30q-73 0 -131 30t-93 79.5 t-53 108.5t-18 122zM1028 322q0 -100 46.5 -172t127.5 -72q82 0 128 71.5t46 172.5t-45.5 171t-128.5 70q-82 0 -128 -70.5t-46 -170.5z" />
<glyph unicode="&#x26;" horiz-adv-x="1425" d="M106 360q0 79 27 144.5t79 114.5t105 83t129 70q-102 105 -144 176t-42 158q0 135 102 230.5t271 95.5q168 0 268 -87.5t100 -224.5q0 -59 -21 -109.5t-50.5 -85t-82 -70t-94 -56.5t-108.5 -51l404 -408q77 146 77 342v23h127v-41q0 -89 -26.5 -202t-87.5 -212l247 -250 h-165l-156 154q-167 -177 -455 -177q-239 0 -371.5 103t-132.5 280zM246 373q0 -132 99.5 -206.5t264.5 -74.5q236 0 371 148l-455 452q-64 -30 -109 -58t-87 -66.5t-63 -87.5t-21 -107zM387 1112q0 -65 41 -126.5t137 -158.5q73 33 118 58t92.5 61t70 79t22.5 95 q0 87 -62.5 145t-172.5 58q-114 0 -180 -60.5t-66 -150.5z" />
<glyph unicode="'" horiz-adv-x="425" d="M143 1251v158h140v-158l-25 -358h-90z" />
<glyph unicode="(" horiz-adv-x="563" d="M63 532q0 155 31.5 309.5t84.5 281.5t107 224.5t113 176.5h127q-51 -67 -103.5 -164t-105.5 -226.5t-86.5 -289t-33.5 -312.5t34 -313.5t88 -291.5t106 -228t101 -166h-127q-59 79 -113 177.5t-107 227t-84.5 284t-31.5 310.5z" />
<glyph unicode=")" horiz-adv-x="563" d="M37 -467q49 69 101 166t106 228t88.5 291.5t34.5 313.5t-33.5 312.5t-87 289t-106 226.5t-103.5 164h127q59 -79 113 -176.5t107 -224.5t84.5 -281.5t31.5 -309.5t-31.5 -310.5t-84.5 -284t-107 -227t-113 -177.5h-127z" />
<glyph unicode="*" horiz-adv-x="921" d="M131 1145l35 108l262 -112l-25 284h115l-26 -288l264 116l35 -108l-281 -66l188 -213l-92 -65l-147 246l-146 -246l-90 65l187 215z" />
<glyph unicode="+" d="M117 459v121h401v403h127v-403h402v-121h-402v-402h-127v402h-401z" />
<glyph unicode="," horiz-adv-x="499" d="M162 0v188h176v-176l-86 -250h-82l66 238h-74z" />
<glyph unicode="-" horiz-adv-x="811" d="M123 453v127h565v-127h-565z" />
<glyph unicode="." horiz-adv-x="499" d="M162 0v188h176v-188h-176z" />
<glyph unicode="/" horiz-adv-x="821" d="M35 -25l631 1459h120l-630 -1459h-121z" />
<glyph unicode="0" d="M55 705q0 208 59 370.5t180 259.5t288 97q101 0 186.5 -36t147.5 -101.5t105.5 -156t65 -200.5t21.5 -233q0 -208 -58.5 -370.5t-179.5 -260t-288 -97.5t-288 97.5t-180 260t-59 370.5zM195 705q0 -275 106.5 -438t280.5 -163t280.5 163t106.5 438t-106 437.5t-281 162.5 q-177 0 -282 -162t-105 -438z" />
<glyph unicode="1" horiz-adv-x="759" d="M123 1149l366 260h107v-1409h-139v1237l-273 -195z" />
<glyph unicode="2" horiz-adv-x="1144" d="M125 999q4 93 31.5 167.5t70 123t100 81.5t119 47t129.5 14q191 0 313 -116.5t122 -309.5q0 -58 -11 -112t-34 -100.5t-45.5 -83.5t-58.5 -76t-58 -61.5t-59.5 -56.5t-49.5 -45q-131 -126 -389 -350h723v-121h-901l2 115q183 164 477 450q8 7 53.5 50.5t63 62t54 63.5 t52.5 79t30.5 84t14.5 102q0 128 -77 216.5t-222 88.5q-297 0 -323 -312h-127z" />
<glyph unicode="3" d="M104 369h140q7 -52 30.5 -99t63 -86t101.5 -62.5t139 -23.5q140 0 237.5 91t97.5 249q0 94 -31.5 158t-93 98t-138.5 47t-183 11l-41 120l434 410h-655v127h780l2 -188l-397 -355q73 -3 139 -19.5t126 -49.5t103.5 -79.5t69 -115t25.5 -151.5q0 -113 -39 -204.5 t-105.5 -149.5t-151.5 -89t-179 -31q-207 0 -331 108.5t-143 283.5z" />
<glyph unicode="4" horiz-adv-x="1161" d="M70 373v100l401 936h141l-391 -915h514v518h139v-518h216v-121h-216v-373h-139v373h-665z" />
<glyph unicode="5" d="M111 369h139q7 -52 30.5 -99t63 -86t101.5 -62.5t139 -23.5q91 0 166 38.5t122.5 117t47.5 184.5q0 156 -93.5 253t-240.5 97q-95 0 -166 -43.5t-135 -130.5l-129 7l41 788h772v-127h-652l-36 -543h8q113 164 325 164q188 0 316.5 -125t128.5 -327q0 -113 -39 -204.5 t-105.5 -149.5t-151.5 -89t-179 -31q-207 0 -330.5 108.5t-142.5 283.5z" />
<glyph unicode="6" horiz-adv-x="1157" d="M86 659q0 163 29.5 294.5t79 218t117.5 145t140.5 85t153.5 30.5q262 13 389 -207l-110 -72q-84 168 -279 158q-58 -3 -114 -28.5t-110 -80t-93 -132t-59 -195t-11 -257.5q54 142 161.5 212.5t237.5 70.5q205 0 329 -125.5t124 -331.5q0 -144 -67 -254t-176.5 -164 t-241.5 -49q-105 4 -194 47.5t-158.5 125t-108.5 212.5t-39 297zM258 436q0 -130 94 -231t228 -107q154 -8 253 87t99 259q0 149 -93.5 242.5t-238.5 93.5q-149 0 -245.5 -105t-96.5 -239z" />
<glyph unicode="7" d="M113 1282v127h954v-100l-598 -1309h-145l598 1282h-809z" />
<glyph unicode="8" horiz-adv-x="1167" d="M96 395q0 135 86 240.5t203 134.5l2 6q-93 19 -160 107t-67 198q0 150 111.5 250.5t312.5 100.5q200 0 312 -100t112 -251q0 -110 -67.5 -198t-160.5 -107l-2 -6q118 -29 205.5 -135t87.5 -240q0 -84 -32.5 -159.5t-92.5 -133t-153.5 -91.5t-208.5 -34t-208.5 34 t-154 91.5t-93 133t-32.5 159.5zM236 406q0 -126 92 -217t256 -91t256 91t92 217q0 133 -98 219t-250 86t-250 -86t-98 -219zM293 1079q0 -118 77.5 -181.5t213.5 -63.5t213 63.5t77 181.5q0 103 -77.5 170.5t-212.5 67.5q-136 0 -213.5 -68t-77.5 -170z" />
<glyph unicode="9" horiz-adv-x="1157" d="M86 965q0 144 67 254t176.5 164t241.5 49q105 -4 194 -47.5t158.5 -125t108.5 -212.5t39 -297q0 -163 -29.5 -294.5t-79 -218t-117.5 -145t-140.5 -85t-153.5 -30.5q-262 -13 -389 207l110 72q84 -168 279 -158q58 3 114 28.5t110 80t93 132t59 195t11 257.5 q-54 -142 -161.5 -212.5t-237.5 -70.5q-205 0 -329 125.5t-124 331.5zM225 965q0 -149 93.5 -242.5t238.5 -93.5q149 0 245.5 105t96.5 239q0 130 -93.5 231t-227.5 107q-154 8 -253.5 -87t-99.5 -259z" />
<glyph unicode=":" horiz-adv-x="499" d="M162 0v188h176v-188h-176zM162 811v188h176v-188h-176z" />
<glyph unicode=";" horiz-adv-x="499" d="M162 0v188h176v-176l-86 -250h-82l66 238h-74zM162 811v188h176v-188h-176z" />
<glyph unicode="&#x3c;" d="M150 461v121l864 368v-127l-723 -299l723 -299v-133z" />
<glyph unicode="=" d="M117 246v121h930v-121h-930zM117 674v121h930v-121h-930z" />
<glyph unicode="&#x3e;" d="M150 92v127l727 299l-727 299v133l864 -368v-121z" />
<glyph unicode="?" horiz-adv-x="993" d="M78 991q0 93 28 172.5t81 139.5t136.5 94.5t188.5 34.5q180 0 294 -97t114 -260q0 -68 -20 -125t-51.5 -97t-70 -75t-77.5 -67t-70.5 -64.5t-51.5 -76t-20 -93.5v-76h-139v58q0 68 19.5 125t50.5 97t69 75t76 67.5t69 66.5t50.5 79.5t19.5 99.5q0 107 -73 174.5 t-189 67.5q-141 0 -218 -88t-77 -232h-139zM408 0v168h161v-168h-161z" />
<glyph unicode="@" horiz-adv-x="2113" d="M106 477q0 200 71 376t195.5 303.5t304 201.5t388.5 74q198 0 371 -62.5t299.5 -175t199 -277t72.5 -360.5q0 -118 -20.5 -215t-56 -162.5t-84.5 -110.5t-104.5 -65t-117.5 -20q-108 0 -180 49t-90 157q-65 -109 -155 -161t-218 -52q-188 0 -310 139.5t-122 375.5 t128 383t316 147q133 0 217 -52t133 -153v162h134v-670q0 -229 159 -229q106 0 178 120.5t72 356.5q0 234 -109 411t-294.5 269t-417.5 92q-183 0 -340.5 -65.5t-266 -179t-170 -271t-61.5 -336.5q0 -244 103 -436t288 -299t420 -107q145 0 267 45.5t206 133.5h158 q-108 -138 -270.5 -209.5t-360.5 -71.5q-201 0 -374.5 71t-295.5 195.5t-192 300t-70 377.5zM694 492q0 -183 91.5 -288.5t230.5 -105.5t230 108t91 294q0 185 -91 293t-230 108q-138 0 -230 -112t-92 -297z" />
<glyph unicode="A" horiz-adv-x="1292" d="M31 0l530 1409h170l531 -1409h-152l-125 344h-682l-127 -344h-145zM348 469h590l-287 788h-16z" />
<glyph unicode="B" horiz-adv-x="1210" d="M184 0v1409h381q436 0 436 -348q0 -116 -57 -197t-141 -96v-4q142 -20 223.5 -115t81.5 -235q0 -185 -119 -299.5t-338 -114.5h-467zM330 127h321q153 0 232.5 77.5t79.5 207.5q0 119 -81 200.5t-231 81.5h-321v-567zM330 821h245q137 0 209 64t72 178q0 108 -69.5 163.5 t-221.5 55.5h-235v-461z" />
<glyph unicode="C" horiz-adv-x="1576" d="M96 705q0 153 56 288.5t152 231.5t229.5 151.5t283.5 55.5q242 0 422 -145t246 -382h-150q-61 183 -199 293.5t-319 110.5q-116 0 -223 -47.5t-185 -127.5t-124.5 -192.5t-46.5 -236.5q0 -125 46 -238t124 -193.5t185 -128t224 -47.5q181 0 319 110t199 294h150 q-65 -238 -245 -382.5t-423 -144.5q-150 0 -283.5 55.5t-229.5 151.5t-152 232t-56 291z" />
<glyph unicode="D" horiz-adv-x="1333" d="M184 0v1409h324q180 0 321.5 -52t232 -146t138 -222t47.5 -284t-47.5 -284.5t-138 -222.5t-232 -146t-321.5 -52h-324zM328 127h180q152 0 267.5 45.5t184 126t102.5 182.5t34 224t-34 224t-102.5 182t-184 125.5t-267.5 45.5h-180v-1155z" />
<glyph unicode="E" horiz-adv-x="1142" d="M184 0v1409h822v-127h-676v-461h555v-127h-555v-567h710v-127h-856z" />
<glyph unicode="F" horiz-adv-x="1067" d="M184 0v1409h822v-127h-676v-463h557v-127h-557v-692h-146z" />
<glyph unicode="G" horiz-adv-x="1613" d="M113 702q0 207 91 372.5t251.5 259.5t361.5 98h16q240 0 409 -120q174 -123 218 -313h-141q-36 132 -171 222q-128 86 -314 86h-17q-243 -6 -403 -177.5t-160 -427.5q0 -119 34.5 -220.5t92 -171t133 -118.5t156.5 -71.5t164 -22.5q77 0 144 12.5t113.5 32.5t85 44.5 t61.5 49t39 44.5t22 33l6 12v264h-471v127h600v-432q-2 -6 -7 -17.5t-25.5 -43.5t-47.5 -61.5t-76.5 -65t-108.5 -61.5t-146.5 -43.5t-188.5 -17.5q-109 0 -212.5 28t-196 87.5t-162 144t-110 205t-40.5 262.5z" />
<glyph unicode="H" horiz-adv-x="1390" d="M184 -2v1409h146v-588h731v588h145v-1409h-145v694h-731v-694h-146z" />
<glyph unicode="I" horiz-adv-x="581" d="M102 0v113h117l2 1187h-119v109h377v-109h-119v-1187h119v-113h-377z" />
<glyph unicode="J" horiz-adv-x="1089" d="M92 186l105 68q75 -160 290 -160q153 0 233.5 92t80.5 260v834h-439v129h574v-956q0 -227 -116 -352.5t-335 -125.5q-128 0 -233 53.5t-160 157.5z" />
<glyph unicode="K" horiz-adv-x="1239" d="M184 0v1409h138v-588h40l660 588h176l-727 -649l713 -760h-183l-2 2l-641 692h-36v-694h-138z" />
<glyph unicode="L" horiz-adv-x="1073" d="M184 0v1409h146v-1282h661v-127h-807z" />
<glyph unicode="M" horiz-adv-x="1660" d="M164 0v1409h166l499 -872h5l497 872h166v-1409h-145l6 1186l-467 -805h-121l-467 805l6 -1186h-145z" />
<glyph unicode="N" horiz-adv-x="1427" d="M164 0v1409h133l821 -1171h6l-6 1171h146v-1409h-134l-821 1163h-6l6 -1163h-145z" />
<glyph unicode="O" horiz-adv-x="1605" d="M82 705q0 154 56.5 290t152.5 232t229.5 151.5t282.5 55.5q146 0 279 -55.5t230 -151.5t154.5 -232t57.5 -290q0 -205 -97.5 -372.5t-262.5 -261.5t-361 -94q-149 0 -282.5 55.5t-229.5 151.5t-152.5 231.5t-56.5 289.5zM223 705q0 -125 47 -237.5t125.5 -193t185 -127.5 t222.5 -47q115 0 221.5 47t185 127.5t125.5 193t47 237.5t-47 237.5t-125.5 192.5t-185 127t-221.5 47q-116 0 -222.5 -47t-185 -127t-125.5 -192.5t-47 -237.5z" />
<glyph unicode="P" horiz-adv-x="1214" d="M184 0v1409h416q232 0 362 -109.5t130 -304.5q0 -196 -126 -309t-354 -113h-282v-573h-146zM330 698h288q160 0 245 79.5t85 217.5q0 137 -89 212t-253 75h-276v-584z" />
<glyph unicode="Q" horiz-adv-x="1654" d="M92 705q0 206 95 373t260 261.5t366 94.5q148 0 280 -53.5t229.5 -147.5t154.5 -231.5t57 -296.5q0 -254 -188 -484l215 -221h-193l-123 125q-157 -148 -432 -148q-151 0 -284.5 55.5t-229.5 151.5t-151.5 231.5t-55.5 289.5zM233 705q0 -125 46.5 -237.5t124.5 -193 t185 -127.5t224 -47q216 0 340 121l-250 256l101 101l245 -256q144 193 144 371v12q-4 132 -51 245t-125 191.5t-183 123t-221 44.5q-156 0 -289 -79.5t-212 -219t-79 -305.5z" />
<glyph unicode="R" horiz-adv-x="1239" d="M184 0v1409h418q210 0 332.5 -103.5t122.5 -281.5q0 -155 -93.5 -254.5t-230.5 -126.5l404 -643h-164l-395 631h-248v-631h-146zM330 756h260q153 0 241.5 70t88.5 194q0 125 -83.5 193.5t-220.5 68.5h-286v-526z" />
<glyph unicode="S" horiz-adv-x="1146" d="M113 182l2 2l108 78q51 -76 147 -123t201 -47q154 0 243 75t89 200q0 81 -42 141t-108.5 96t-147.5 66.5t-162 62.5t-147.5 71.5t-108.5 105.5t-42 155q0 115 59 200t157.5 127t220.5 42q284 0 413 -201l-102 -74q-52 77 -134.5 116.5t-176.5 39.5q-135 0 -220.5 -67.5 t-85.5 -176.5q0 -63 42 -111t108.5 -80.5t147.5 -62t162 -66t147.5 -83t108.5 -122t42 -173.5q0 -186 -131 -292t-332 -106q-318 0 -458 207z" />
<glyph unicode="T" horiz-adv-x="976" d="M16 1286v123h945v-123h-400v-1286h-145v1286h-400z" />
<glyph unicode="U" horiz-adv-x="1323" d="M154 485v924h145v-936q0 -167 98.5 -265.5t264.5 -98.5t264 98.5t98 265.5v936h145v-924q0 -227 -140.5 -368.5t-366.5 -141.5t-367 141.5t-141 368.5z" />
<glyph unicode="V" horiz-adv-x="1259" d="M27 1409h151l451 -1257h8l450 1257h146l-524 -1409h-162z" />
<glyph unicode="W" horiz-adv-x="1748" d="M33 1409h151l275 -1257h8l317 1038h181l317 -1038h8l275 1257h151l-336 -1409h-182l-317 1038h-13l-317 -1038h-182z" />
<glyph unicode="X" horiz-adv-x="1206" d="M27 0l491 719l-475 690h164l393 -575l389 575h158l-467 -684l500 -725h-164l-418 608l-414 -608h-157z" />
<glyph unicode="Y" horiz-adv-x="1196" d="M27 1409h163l414 -698h6l428 698h152l-862 -1409h-154l350 573z" />
<glyph unicode="Z" horiz-adv-x="1120" d="M82 0v94l786 1192h-745v123h915v-94l-786 -1192h776v-123h-946z" />
<glyph unicode="[" horiz-adv-x="651" d="M186 -467v1991h428v-115h-301v-1761h301v-115h-428z" />
<glyph unicode="\" horiz-adv-x="821" d="M35 1434h121l630 -1459h-120z" />
<glyph unicode="]" horiz-adv-x="651" d="M37 -352h301v1761h-301v115h428v-1991h-428v115z" />
<glyph unicode="^" d="M123 721l391 688h139l391 -688h-145l-319 577l-318 -577h-139z" />
<glyph unicode="_" horiz-adv-x="1024" d="M0 -147h1024v-109h-1024v109z" />
<glyph unicode="`" horiz-adv-x="1161" d="M346 1812h156l221 -280h-154z" />
<glyph unicode="a" horiz-adv-x="1292" d="M31 0l530 1409h170l531 -1409h-152l-125 344h-682l-127 -344h-145zM348 469h590l-287 788h-16z" />
<glyph unicode="b" horiz-adv-x="1210" d="M184 0v1409h381q436 0 436 -348q0 -116 -57 -197t-141 -96v-4q142 -20 223.5 -115t81.5 -235q0 -185 -119 -299.5t-338 -114.5h-467zM330 127h321q153 0 232.5 77.5t79.5 207.5q0 119 -81 200.5t-231 81.5h-321v-567zM330 821h245q137 0 209 64t72 178q0 108 -69.5 163.5 t-221.5 55.5h-235v-461z" />
<glyph unicode="c" horiz-adv-x="1576" d="M96 705q0 153 56 288.5t152 231.5t229.5 151.5t283.5 55.5q242 0 422 -145t246 -382h-150q-61 183 -199 293.5t-319 110.5q-116 0 -223 -47.5t-185 -127.5t-124.5 -192.5t-46.5 -236.5q0 -125 46 -238t124 -193.5t185 -128t224 -47.5q181 0 319 110t199 294h150 q-65 -238 -245 -382.5t-423 -144.5q-150 0 -283.5 55.5t-229.5 151.5t-152 232t-56 291z" />
<glyph unicode="d" horiz-adv-x="1333" d="M184 0v1409h324q180 0 321.5 -52t232 -146t138 -222t47.5 -284t-47.5 -284.5t-138 -222.5t-232 -146t-321.5 -52h-324zM328 127h180q152 0 267.5 45.5t184 126t102.5 182.5t34 224t-34 224t-102.5 182t-184 125.5t-267.5 45.5h-180v-1155z" />
<glyph unicode="e" horiz-adv-x="1142" d="M184 0v1409h822v-127h-676v-461h555v-127h-555v-567h710v-127h-856z" />
<glyph unicode="f" horiz-adv-x="1067" d="M184 0v1409h822v-127h-676v-463h557v-127h-557v-692h-146z" />
<glyph unicode="g" horiz-adv-x="1613" d="M113 702q0 207 91 372.5t251.5 259.5t361.5 98h16q240 0 409 -120q174 -123 218 -313h-141q-36 132 -171 222q-128 86 -314 86h-17q-243 -6 -403 -177.5t-160 -427.5q0 -119 34.5 -220.5t92 -171t133 -118.5t156.5 -71.5t164 -22.5q77 0 144 12.5t113.5 32.5t85 44.5 t61.5 49t39 44.5t22 33l6 12v264h-471v127h600v-432q-2 -6 -7 -17.5t-25.5 -43.5t-47.5 -61.5t-76.5 -65t-108.5 -61.5t-146.5 -43.5t-188.5 -17.5q-109 0 -212.5 28t-196 87.5t-162 144t-110 205t-40.5 262.5z" />
<glyph unicode="h" horiz-adv-x="1390" d="M184 -2v1409h146v-588h731v588h145v-1409h-145v694h-731v-694h-146z" />
<glyph unicode="i" horiz-adv-x="581" d="M102 0v113h117l2 1187h-119v109h377v-109h-119v-1187h119v-113h-377z" />
<glyph unicode="j" horiz-adv-x="1089" d="M92 186l105 68q75 -160 290 -160q153 0 233.5 92t80.5 260v834h-439v129h574v-956q0 -227 -116 -352.5t-335 -125.5q-128 0 -233 53.5t-160 157.5z" />
<glyph unicode="k" horiz-adv-x="1239" d="M184 0v1409h138v-588h40l660 588h176l-727 -649l713 -760h-183l-2 2l-641 692h-36v-694h-138z" />
<glyph unicode="l" horiz-adv-x="1073" d="M184 0v1409h146v-1282h661v-127h-807z" />
<glyph unicode="m" horiz-adv-x="1660" d="M164 0v1409h166l499 -872h5l497 872h166v-1409h-145l6 1186l-467 -805h-121l-467 805l6 -1186h-145z" />
<glyph unicode="n" horiz-adv-x="1427" d="M164 0v1409h133l821 -1171h6l-6 1171h146v-1409h-134l-821 1163h-6l6 -1163h-145z" />
<glyph unicode="o" horiz-adv-x="1605" d="M82 705q0 154 56.5 290t152.5 232t229.5 151.5t282.5 55.5q146 0 279 -55.5t230 -151.5t154.5 -232t57.5 -290q0 -205 -97.5 -372.5t-262.5 -261.5t-361 -94q-149 0 -282.5 55.5t-229.5 151.5t-152.5 231.5t-56.5 289.5zM223 705q0 -125 47 -237.5t125.5 -193t185 -127.5 t222.5 -47q115 0 221.5 47t185 127.5t125.5 193t47 237.5t-47 237.5t-125.5 192.5t-185 127t-221.5 47q-116 0 -222.5 -47t-185 -127t-125.5 -192.5t-47 -237.5z" />
<glyph unicode="p" horiz-adv-x="1214" d="M184 0v1409h416q232 0 362 -109.5t130 -304.5q0 -196 -126 -309t-354 -113h-282v-573h-146zM330 698h288q160 0 245 79.5t85 217.5q0 137 -89 212t-253 75h-276v-584z" />
<glyph unicode="q" horiz-adv-x="1654" d="M92 705q0 206 95 373t260 261.5t366 94.5q148 0 280 -53.5t229.5 -147.5t154.5 -231.5t57 -296.5q0 -254 -188 -484l215 -221h-193l-123 125q-157 -148 -432 -148q-151 0 -284.5 55.5t-229.5 151.5t-151.5 231.5t-55.5 289.5zM233 705q0 -125 46.5 -237.5t124.5 -193 t185 -127.5t224 -47q216 0 340 121l-250 256l101 101l245 -256q144 193 144 371v12q-4 132 -51 245t-125 191.5t-183 123t-221 44.5q-156 0 -289 -79.5t-212 -219t-79 -305.5z" />
<glyph unicode="r" horiz-adv-x="1239" d="M184 0v1409h418q210 0 332.5 -103.5t122.5 -281.5q0 -155 -93.5 -254.5t-230.5 -126.5l404 -643h-164l-395 631h-248v-631h-146zM330 756h260q153 0 241.5 70t88.5 194q0 125 -83.5 193.5t-220.5 68.5h-286v-526z" />
<glyph unicode="s" horiz-adv-x="1146" d="M113 182l2 2l108 78q51 -76 147 -123t201 -47q154 0 243 75t89 200q0 81 -42 141t-108.5 96t-147.5 66.5t-162 62.5t-147.5 71.5t-108.5 105.5t-42 155q0 115 59 200t157.5 127t220.5 42q284 0 413 -201l-102 -74q-52 77 -134.5 116.5t-176.5 39.5q-135 0 -220.5 -67.5 t-85.5 -176.5q0 -63 42 -111t108.5 -80.5t147.5 -62t162 -66t147.5 -83t108.5 -122t42 -173.5q0 -186 -131 -292t-332 -106q-318 0 -458 207z" />
<glyph unicode="t" horiz-adv-x="976" d="M16 1286v123h945v-123h-400v-1286h-145v1286h-400z" />
<glyph unicode="u" horiz-adv-x="1323" d="M154 485v924h145v-936q0 -167 98.5 -265.5t264.5 -98.5t264 98.5t98 265.5v936h145v-924q0 -227 -140.5 -368.5t-366.5 -141.5t-367 141.5t-141 368.5z" />
<glyph unicode="v" horiz-adv-x="1259" d="M27 1409h151l451 -1257h8l450 1257h146l-524 -1409h-162z" />
<glyph unicode="w" horiz-adv-x="1736" d="M27 1409h151l275 -1257h8l317 1038h180l318 -1038h8l275 1257h151l-336 -1409h-182l-318 1038h-12l-317 -1038h-183z" />
<glyph unicode="x" horiz-adv-x="1206" d="M27 0l491 719l-475 690h164l393 -575l389 575h158l-467 -684l500 -725h-164l-418 608l-414 -608h-157z" />
<glyph unicode="y" horiz-adv-x="1196" d="M27 1409h163l414 -698h6l428 698h152l-862 -1409h-154l350 573z" />
<glyph unicode="z" horiz-adv-x="1120" d="M82 0v94l786 1192h-745v123h915v-94l-786 -1192h776v-123h-946z" />
<glyph unicode="{" horiz-adv-x="733" d="M63 487v97q132 9 180 65t48 197v371q0 152 71.5 229.5t233.5 77.5h100v-109h-94q-98 0 -141 -46t-43 -146v-414q0 -112 -48 -175.5t-157 -94.5v-7q109 -31 157 -94.5t48 -175.5v-428q0 -100 43 -146t141 -46h94v-109h-100q-162 0 -233.5 77.5t-71.5 229.5v385 q0 142 -48 198.5t-180 63.5z" />
<glyph unicode="|" horiz-adv-x="524" d="M199 -492v2048h127v-2048h-127z" />
<glyph unicode="}" horiz-adv-x="733" d="M37 -358h94q98 0 141 46t43 146v428q0 113 48.5 176t158.5 94v7q-110 31 -158.5 94t-48.5 176v414q0 100 -43 146t-141 46h-94v109h100q162 0 233.5 -77.5t71.5 -229.5v-371q0 -141 48 -197t180 -65v-97q-132 -7 -180 -63.5t-48 -198.5v-385q0 -152 -71.5 -229.5 t-233.5 -77.5h-100v109z" />
<glyph unicode="~" d="M129 381q0 143 68.5 218t175.5 75q50 0 99.5 -17.5t89 -42t76.5 -49t77 -42t76 -17.5q122 0 122 172h121q0 -142 -67 -217.5t-170 -75.5q-50 0 -100.5 18t-91 43.5t-78.5 51t-78 43.5t-76 18q-123 0 -123 -178h-121z" />
<glyph unicode="&#xa1;" horiz-adv-x="524" d="M180 -410l23 1022h119l22 -1022h-164zM180 831v168h164v-168h-164z" />
<glyph unicode="&#xa2;" horiz-adv-x="1245" d="M123 711q0 209 129 355t328 169v197h131v-197q155 -18 263 -119t152 -258h-141q-35 124 -124 189t-216 65q-171 0 -276 -108.5t-105 -292.5q0 -185 105 -292.5t276 -107.5q128 0 217 64t123 190h143q-44 -158 -154.5 -259t-268.5 -118v-211h-132v211q-197 25 -323.5 170 t-126.5 353z" />
<glyph unicode="&#xa3;" horiz-adv-x="1148" d="M131 682v98h184q-67 170 -67 293q0 163 102.5 261t272.5 98q165 0 260.5 -93t105.5 -266h-139q-18 244 -234 244q-102 0 -165.5 -62.5t-63.5 -169.5q0 -49 13 -105.5t27 -95t40 -104.5h348v-98h-311q41 -125 41 -219q0 -115 -36.5 -196.5t-117.5 -153.5h604v-115l-802 2 v86q92 70 155.5 155t63.5 173q0 108 -60 268h-221z" />
<glyph unicode="&#xa4;" d="M188 381l121 123q-67 94 -67 201q0 108 69 202l-121 125l70 70l123 -125q81 63 199 63q111 0 196 -63l123 125l72 -70l-123 -123q72 -97 72 -204q0 -102 -70 -201l121 -123l-70 -70l-121 121q-81 -63 -200 -63q-120 0 -203 65l-119 -123zM356 705q0 -103 64 -168.5 t162 -65.5t161.5 65.5t63.5 168.5t-63.5 168t-161.5 65t-162 -65t-64 -168z" />
<glyph unicode="&#xa5;" horiz-adv-x="1216" d="M27 1409h163l351 -598l59 -129h18l62 131l358 596h152l-506 -834h317v-90h-325v-139h325v-90h-325v-256h-141v256h-324v90h324v139h-324v90h315z" />
<glyph unicode="&#xa6;" horiz-adv-x="524" d="M199 -336v721h127v-721h-127zM199 688v721h127v-721h-127z" />
<glyph unicode="&#xa7;" horiz-adv-x="1146" d="M125 481q0 114 68.5 198.5t185.5 121.5q-102 42 -157.5 110t-55.5 183q0 154 118 247t302 93q183 0 297.5 -80t124.5 -240h-134q-7 104 -86 157.5t-202 53.5q-129 0 -205 -59.5t-76 -159.5q0 -89 53.5 -135.5t161.5 -79.5l189 -57q163 -50 238 -132t75 -217 q0 -114 -68.5 -198t-185.5 -121q102 -42 157.5 -110.5t55.5 -182.5q0 -154 -118 -247t-302 -93q-182 0 -297 80.5t-125 239.5h133q7 -104 86.5 -157.5t202.5 -53.5q129 0 205 59.5t76 159.5q0 89 -53.5 135.5t-161.5 79.5l-189 57q-163 50 -238 131.5t-75 216.5zM258 500 q0 -102 56.5 -156t179.5 -90l129 -39q124 22 195 89.5t71 162.5q0 103 -55.5 155.5t-180.5 92.5l-137 41q-120 -23 -189 -92t-69 -164z" />
<glyph unicode="&#xa8;" horiz-adv-x="1148" d="M293 1532v160h160v-160h-160zM696 1532v160h160v-160h-160z" />
<glyph unicode="&#xa9;" horiz-adv-x="1589" d="M78 713q0 203 92 367t256 258t369 94q201 0 365 -93.5t257.5 -258.5t93.5 -367q0 -203 -91.5 -371.5t-256 -266.5t-368.5 -98q-153 0 -287 57.5t-228 156.5t-148 234.5t-54 287.5zM193 713q0 -174 75.5 -320t214 -232.5t312.5 -86.5q128 0 241 51t191.5 137t124 203.5 t45.5 247.5q0 174 -76 314.5t-214 221t-312 80.5q-175 0 -313 -81t-213.5 -221t-75.5 -314zM442 702q0 156 104 260.5t257 104.5q121 0 210 -71.5t122 -190.5h-113q-29 85 -81 122.5t-138 37.5q-114 0 -181 -70t-67 -193t67 -191.5t181 -68.5q87 0 139 38t80 122h115 q-33 -118 -122.5 -190t-211.5 -72q-153 0 -257 103t-104 259z" />
<glyph unicode="&#xab;" horiz-adv-x="1034" d="M113 516l297 418h114l-254 -418l254 -418h-114zM510 516l297 418h115l-254 -418l254 -418h-115z" />
<glyph unicode="&#xac;" d="M117 459v121h930v-523h-127v402h-803z" />
<glyph unicode="&#xad;" horiz-adv-x="811" d="M123 453v127h565v-127h-565z" />
<glyph unicode="&#xae;" horiz-adv-x="1589" d="M78 713q0 203 92 367t256 258t369 94q201 0 365 -93.5t257.5 -258.5t93.5 -367q0 -203 -91.5 -371.5t-256 -266.5t-368.5 -98q-153 0 -287 57.5t-228 156.5t-148 234.5t-54 287.5zM193 713q0 -174 75.5 -320t214 -232.5t312.5 -86.5q128 0 241 51t191.5 137t124 203.5 t45.5 247.5q0 174 -76 314.5t-214 221t-312 80.5q-175 0 -313 -81t-213.5 -221t-75.5 -314zM567 356v713h232q101 0 168 -53t67 -146q0 -85 -46.5 -136t-117.5 -64l203 -314h-115l-198 308h-90v-308h-103zM670 756h121q69 0 106 29t37 83q0 53 -34.5 81t-94.5 28h-135v-221z " />
<glyph unicode="&#xaf;" horiz-adv-x="1122" d="M279 1532v108h565v-108h-565z" />
<glyph unicode="&#xb0;" horiz-adv-x="729" d="M82 1153q0 121 81 200t202 79t201.5 -79t80.5 -200q0 -119 -80.5 -197.5t-201.5 -78.5t-202 78.5t-81 197.5zM197 1153q0 -75 47.5 -125.5t120.5 -50.5t120 50t47 126q0 77 -47 126.5t-120 49.5t-120.5 -49.5t-47.5 -126.5z" />
<glyph unicode="&#xb1;" d="M117 0v121h930v-121h-930zM117 625v120h401v373h127v-373h402v-120h-402v-373h-127v373h-401z" />
<glyph unicode="&#xb4;" horiz-adv-x="1263" d="M612 1532l222 280h155l-223 -280h-154z" />
<glyph unicode="&#xb6;" horiz-adv-x="1239" d="M98 973q0 199 134 317.5t366 118.5h96v-1409h-139v539q-213 10 -335 128t-122 306zM889 0v1409h139v-1409h-139z" />
<glyph unicode="&#xb7;" horiz-adv-x="499" d="M162 426v180h176v-180h-176z" />
<glyph unicode="&#xb8;" horiz-adv-x="1126" d="M440 -432l6 90l70 -10q71 -10 106 17t35 75q0 43 -31.5 67.5t-90.5 24.5h-56l45 168h54v-90q90 -4 139 -52t49 -118q0 -84 -62 -141t-182 -41z" />
<glyph unicode="&#xbb;" horiz-adv-x="1034" d="M113 98l254 418l-254 418h112l299 -418l-299 -418h-112zM510 98l254 418l-254 418h115l297 -418l-297 -418h-115z" />
<glyph unicode="&#xbf;" horiz-adv-x="993" d="M80 -76q0 68 20 125t51.5 97t70 75t77 67t70 64.5t51.5 76t20 93.5v76h140v-57q0 -68 -19.5 -125t-51 -97t-69.5 -75.5t-75.5 -68t-69 -66.5t-51 -79.5t-19.5 -99.5q0 -107 73 -174t189 -67q141 0 218 87t77 232h140q0 -192 -114 -316t-321 -124q-180 0 -293.5 96 t-113.5 260zM428 831v168h162v-168h-162z" />
<glyph unicode="&#xc0;" horiz-adv-x="1292" d="M31 0l530 1409h170l531 -1409h-152l-125 344h-682l-127 -344h-145zM348 469h590l-287 788h-16zM381 1812h156l221 -280h-154z" />
<glyph unicode="&#xc1;" horiz-adv-x="1292" d="M31 0l530 1409h170l531 -1409h-152l-125 344h-682l-127 -344h-145zM348 469h590l-287 788h-16zM530 1532l222 280h155l-223 -280h-154z" />
<glyph unicode="&#xc2;" horiz-adv-x="1292" d="M31 0l530 1409h170l531 -1409h-152l-125 344h-682l-127 -344h-145zM324 1532l262 260h127l262 -260h-133l-193 184l-192 -184h-133zM348 469h590l-287 788h-16z" />
<glyph unicode="&#xc3;" horiz-adv-x="1292" d="M31 0l530 1409h170l531 -1409h-152l-125 344h-682l-127 -344h-145zM328 1532q5 89 50.5 146t127.5 57q49 0 103 -26.5t100 -52.5t77 -26q71 0 88 107h93q-5 -87 -51 -145t-128 -58q-49 0 -103 26t-100 52t-77 26q-71 0 -88 -106h-92zM348 469h590l-287 788h-16z" />
<glyph unicode="&#xc4;" horiz-adv-x="1292" d="M31 0l530 1409h170l531 -1409h-152l-125 344h-682l-127 -344h-145zM348 469h590l-287 788h-16zM365 1532v160h159v-160h-159zM768 1532v160h160v-160h-160z" />
<glyph unicode="&#xc5;" horiz-adv-x="1292" d="M31 0l530 1409h170l531 -1409h-152l-125 344h-682l-127 -344h-145zM348 469h590l-287 788h-16zM449 1722q0 84 58.5 137.5t137.5 53.5t138 -53.5t59 -137.5q0 -83 -58.5 -136.5t-138.5 -53.5q-79 0 -137.5 53t-58.5 137zM526 1722q0 -51 35 -84.5t84 -33.5t84 33.5 t35 84.5t-35.5 85t-83.5 34t-83.5 -34t-35.5 -85z" />
<glyph unicode="&#xc6;" horiz-adv-x="1783" d="M10 0l797 1409h111h729v-127h-594v-461h473v-127h-473v-567h628v-127h-774v344h-551l-196 -344h-150zM426 469h481v821h-24z" />
<glyph unicode="&#xc7;" horiz-adv-x="1576" d="M96 705q0 153 56 288.5t152 231.5t229.5 151.5t283.5 55.5q242 0 422 -145t246 -382h-150q-61 183 -199 293.5t-319 110.5q-116 0 -223 -47.5t-185 -127.5t-124.5 -192.5t-46.5 -236.5q0 -125 46 -238t124 -193.5t185 -128t224 -47.5q181 0 319 110t199 294h150 q-65 -238 -245 -382.5t-423 -144.5v-65q90 -4 139.5 -52.5t49.5 -117.5q0 -84 -62 -141t-182 -41l-82 10l6 90l70 -10q71 -10 106 17t35 75q0 43 -32 67.5t-91 24.5h-55l39 145q-140 11 -262.5 70.5t-210.5 154.5t-138.5 225.5t-50.5 277.5z" />
<glyph unicode="&#xc8;" horiz-adv-x="1142" d="M184 0v1409h822v-127h-676v-461h555v-127h-555v-567h710v-127h-856zM387 1812h156l221 -280h-154z" />
<glyph unicode="&#xc9;" horiz-adv-x="1142" d="M184 0v1409h822v-127h-676v-461h555v-127h-555v-567h710v-127h-856zM446 1532l222 280h155l-223 -280h-154z" />
<glyph unicode="&#xca;" horiz-adv-x="1142" d="M184 0v1409h822v-127h-676v-461h555v-127h-555v-567h710v-127h-856zM279 1532l262 260h127l262 -260h-133l-193 184l-192 -184h-133z" />
<glyph unicode="&#xcb;" horiz-adv-x="1142" d="M184 0v1409h822v-127h-676v-461h555v-127h-555v-567h710v-127h-856zM342 1532v160h160v-160h-160zM745 1532v160h160v-160h-160z" />
<glyph unicode="&#xcc;" horiz-adv-x="581" d="M96 1812h156l221 -280h-154zM102 0v113h117l2 1187h-119v109h377v-109h-119v-1187h119v-113h-377z" />
<glyph unicode="&#xcd;" horiz-adv-x="581" d="M102 0v113h117l2 1187h-119v109h377v-109h-119v-1187h119v-113h-377zM117 1532l221 280h156l-224 -280h-153z" />
<glyph unicode="&#xce;" horiz-adv-x="581" d="M-35 1532l262 260h127l262 -260h-133l-192 184l-193 -184h-133zM102 0v113h117l2 1187h-119v109h377v-109h-119v-1187h119v-113h-377z" />
<glyph unicode="&#xcf;" horiz-adv-x="581" d="M10 1532v160h160v-160h-160zM102 0v113h117l2 1187h-119v109h377v-109h-119v-1187h119v-113h-377zM414 1532v160h159v-160h-159z" />
<glyph unicode="&#xd0;" horiz-adv-x="1396" d="M82 649v133h149v627h324q180 0 321.5 -52t232 -146t138 -222t47.5 -284t-47.5 -284.5t-138 -222.5t-232 -146t-321.5 -52h-324v649h-149zM375 127h180q152 0 267.5 45.5t184 126t102.5 182.5t34 224t-34 224t-102.5 182t-184 125.5t-267.5 45.5h-180v-500h338v-133h-338 v-522z" />
<glyph unicode="&#xd1;" horiz-adv-x="1427" d="M164 0v1409h133l821 -1171h6l-6 1171h146v-1409h-134l-821 1163h-6l6 -1163h-145zM385 1532q5 89 50.5 146t127.5 57q49 0 103 -26.5t100.5 -52.5t77.5 -26q71 0 88 107h92q-5 -88 -50.5 -145.5t-127.5 -57.5q-49 0 -103 26t-100.5 52t-77.5 26q-71 0 -88 -106h-92z" />
<glyph unicode="&#xd2;" horiz-adv-x="1605" d="M82 705q0 154 56.5 290t152.5 232t229.5 151.5t282.5 55.5q146 0 279 -55.5t230 -151.5t154.5 -232t57.5 -290q0 -205 -97.5 -372.5t-262.5 -261.5t-361 -94q-149 0 -282.5 55.5t-229.5 151.5t-152.5 231.5t-56.5 289.5zM223 705q0 -125 47 -237.5t125.5 -193t185 -127.5 t222.5 -47q115 0 221.5 47t185 127.5t125.5 193t47 237.5t-47 237.5t-125.5 192.5t-185 127t-221.5 47q-116 0 -222.5 -47t-185 -127t-125.5 -192.5t-47 -237.5zM592 1812h156l221 -280h-154z" />
<glyph unicode="&#xd3;" horiz-adv-x="1605" d="M82 705q0 154 56.5 290t152.5 232t229.5 151.5t282.5 55.5q146 0 279 -55.5t230 -151.5t154.5 -232t57.5 -290q0 -205 -97.5 -372.5t-262.5 -261.5t-361 -94q-149 0 -282.5 55.5t-229.5 151.5t-152.5 231.5t-56.5 289.5zM223 705q0 -125 47 -237.5t125.5 -193t185 -127.5 t222.5 -47q115 0 221.5 47t185 127.5t125.5 193t47 237.5t-47 237.5t-125.5 192.5t-185 127t-221.5 47q-116 0 -222.5 -47t-185 -127t-125.5 -192.5t-47 -237.5zM612 1532l222 280h155l-223 -280h-154z" />
<glyph unicode="&#xd4;" horiz-adv-x="1605" d="M82 705q0 154 56.5 290t152.5 232t229.5 151.5t282.5 55.5q146 0 279 -55.5t230 -151.5t154.5 -232t57.5 -290q0 -205 -97.5 -372.5t-262.5 -261.5t-361 -94q-149 0 -282.5 55.5t-229.5 151.5t-152.5 231.5t-56.5 289.5zM223 705q0 -125 47 -237.5t125.5 -193t185 -127.5 t222.5 -47q115 0 221.5 47t185 127.5t125.5 193t47 237.5t-47 237.5t-125.5 192.5t-185 127t-221.5 47q-116 0 -222.5 -47t-185 -127t-125.5 -192.5t-47 -237.5zM487 1532l263 260h127l262 -260h-133l-193 184l-192 -184h-134z" />
<glyph unicode="&#xd5;" horiz-adv-x="1605" d="M82 705q0 154 56.5 290t152.5 232t229.5 151.5t282.5 55.5q146 0 279 -55.5t230 -151.5t154.5 -232t57.5 -290q0 -205 -97.5 -372.5t-262.5 -261.5t-361 -94q-149 0 -282.5 55.5t-229.5 151.5t-152.5 231.5t-56.5 289.5zM223 705q0 -125 47 -237.5t125.5 -193t185 -127.5 t222.5 -47q115 0 221.5 47t185 127.5t125.5 193t47 237.5t-47 237.5t-125.5 192.5t-185 127t-221.5 47q-116 0 -222.5 -47t-185 -127t-125.5 -192.5t-47 -237.5zM477 1532q5 89 50.5 146t127.5 57q49 0 103 -26.5t100.5 -52.5t77.5 -26q71 0 88 107h92q-5 -88 -50.5 -145.5 t-127.5 -57.5q-49 0 -103 26t-100.5 52t-77.5 26q-71 0 -88 -106h-92z" />
<glyph unicode="&#xd6;" horiz-adv-x="1605" d="M82 705q0 154 56.5 290t152.5 232t229.5 151.5t282.5 55.5q146 0 279 -55.5t230 -151.5t154.5 -232t57.5 -290q0 -205 -97.5 -372.5t-262.5 -261.5t-361 -94q-149 0 -282.5 55.5t-229.5 151.5t-152.5 231.5t-56.5 289.5zM223 705q0 -125 47 -237.5t125.5 -193t185 -127.5 t222.5 -47q115 0 221.5 47t185 127.5t125.5 193t47 237.5t-47 237.5t-125.5 192.5t-185 127t-221.5 47q-116 0 -222.5 -47t-185 -127t-125.5 -192.5t-47 -237.5zM522 629v159h160v-159h-160zM926 629v159h159v-159h-159z" />
<glyph unicode="&#xd7;" d="M168 186l332 336l-332 336l84 82l330 -334l331 334l84 -84l-331 -336l331 -334l-84 -82l-329 332l-332 -334z" />
<glyph unicode="&#xd8;" horiz-adv-x="1605" d="M82 705q0 154 56.5 290t152.5 232t229.5 151.5t282.5 55.5q215 0 397 -117l92 117h146l-148 -189q110 -101 172 -240t62 -300q0 -205 -97.5 -372.5t-262.5 -261.5t-361 -94q-229 0 -410 123l-98 -125h-145l153 197q-105 100 -163 237.5t-58 295.5zM223 705 q0 -122 44 -231t122 -193l729 929q-145 99 -315 99q-116 0 -222.5 -47t-185 -127t-125.5 -192.5t-47 -237.5zM475 207q148 -107 328 -107q115 0 221.5 47t185 127.5t125.5 193t47 237.5q0 126 -46 237.5t-130 196.5z" />
<glyph unicode="&#xd9;" horiz-adv-x="1323" d="M154 485v924h145v-936q0 -167 98.5 -265.5t264.5 -98.5t264 98.5t98 265.5v936h145v-924q0 -227 -140.5 -368.5t-366.5 -141.5t-367 141.5t-141 368.5zM449 1812h155l221 -280h-153z" />
<glyph unicode="&#xda;" horiz-adv-x="1323" d="M154 485v924h145v-936q0 -167 98.5 -265.5t264.5 -98.5t264 98.5t98 265.5v936h145v-924q0 -227 -140.5 -368.5t-366.5 -141.5t-367 141.5t-141 368.5zM489 1532l222 280h155l-223 -280h-154z" />
<glyph unicode="&#xdb;" horiz-adv-x="1323" d="M154 485v924h145v-936q0 -167 98.5 -265.5t264.5 -98.5t264 98.5t98 265.5v936h145v-924q0 -227 -140.5 -368.5t-366.5 -141.5t-367 141.5t-141 368.5zM326 1532l262 260h127l262 -260h-133l-193 184l-192 -184h-133z" />
<glyph unicode="&#xdc;" horiz-adv-x="1323" d="M154 485v924h145v-936q0 -167 98.5 -265.5t264.5 -98.5t264 98.5t98 265.5v936h145v-924q0 -227 -140.5 -368.5t-366.5 -141.5t-367 141.5t-141 368.5zM375 1532v160h160v-160h-160zM778 1532v160h160v-160h-160z" />
<glyph unicode="&#xdd;" horiz-adv-x="1196" d="M27 1409h163l414 -698h6l428 698h152l-862 -1409h-154l350 573zM489 1532l222 280h155l-223 -280h-154z" />
<glyph unicode="&#xe0;" horiz-adv-x="1292" d="M31 0l530 1409h170l531 -1409h-152l-125 344h-682l-127 -344h-145zM348 469h590l-287 788h-16zM381 1812h156l221 -280h-154z" />
<glyph unicode="&#xe1;" horiz-adv-x="1292" d="M31 0l530 1409h170l531 -1409h-152l-125 344h-682l-127 -344h-145zM348 469h590l-287 788h-16zM530 1532l222 280h155l-223 -280h-154z" />
<glyph unicode="&#xe2;" horiz-adv-x="1292" d="M31 0l530 1409h170l531 -1409h-152l-125 344h-682l-127 -344h-145zM324 1532l262 260h127l262 -260h-133l-193 184l-192 -184h-133zM348 469h590l-287 788h-16z" />
<glyph unicode="&#xe3;" horiz-adv-x="1292" d="M31 0l530 1409h170l531 -1409h-152l-125 344h-682l-127 -344h-145zM328 1532q5 89 50.5 146t127.5 57q49 0 103 -26.5t100 -52.5t77 -26q71 0 88 107h93q-5 -87 -51 -145t-128 -58q-49 0 -103 26t-100 52t-77 26q-71 0 -88 -106h-92zM348 469h590l-287 788h-16z" />
<glyph unicode="&#xe4;" horiz-adv-x="1292" d="M31 0l530 1409h170l531 -1409h-152l-125 344h-682l-127 -344h-145zM348 469h590l-287 788h-16zM365 1532v160h159v-160h-159zM768 1532v160h160v-160h-160z" />
<glyph unicode="&#xe5;" horiz-adv-x="1292" d="M31 0l530 1409h170l531 -1409h-152l-125 344h-682l-127 -344h-145zM348 469h590l-287 788h-16zM449 1722q0 84 58.5 137.5t137.5 53.5t138 -53.5t59 -137.5q0 -83 -58.5 -136.5t-138.5 -53.5q-79 0 -137.5 53t-58.5 137zM526 1722q0 -51 35 -84.5t84 -33.5t84 33.5 t35 84.5t-35.5 85t-83.5 34t-83.5 -34t-35.5 -85z" />
<glyph unicode="&#xe6;" horiz-adv-x="1783" d="M10 0l797 1409h111h729v-127h-594v-461h473v-127h-473v-567h628v-127h-774v344h-551l-196 -344h-150zM426 469h481v821h-24z" />
<glyph unicode="&#xe7;" horiz-adv-x="1576" d="M96 705q0 153 56 288.5t152 231.5t229.5 151.5t283.5 55.5q242 0 422 -145t246 -382h-150q-61 183 -199 293.5t-319 110.5q-116 0 -223 -47.5t-185 -127.5t-124.5 -192.5t-46.5 -236.5q0 -125 46 -238t124 -193.5t185 -128t224 -47.5q181 0 319 110t199 294h150 q-65 -238 -245 -382.5t-423 -144.5v-65q90 -4 139.5 -52.5t49.5 -117.5q0 -84 -62 -141t-182 -41l-82 10l6 90l70 -10q71 -10 106 17t35 75q0 43 -32 67.5t-91 24.5h-55l39 145q-140 11 -262.5 70.5t-210.5 154.5t-138.5 225.5t-50.5 277.5z" />
<glyph unicode="&#xe8;" horiz-adv-x="1142" d="M184 0v1409h822v-127h-676v-461h555v-127h-555v-567h710v-127h-856zM387 1812h156l221 -280h-154z" />
<glyph unicode="&#xe9;" horiz-adv-x="1142" d="M184 0v1409h822v-127h-676v-461h555v-127h-555v-567h710v-127h-856zM446 1532l222 280h155l-223 -280h-154z" />
<glyph unicode="&#xea;" horiz-adv-x="1142" d="M184 0v1409h822v-127h-676v-461h555v-127h-555v-567h710v-127h-856zM279 1532l262 260h127l262 -260h-133l-193 184l-192 -184h-133z" />
<glyph unicode="&#xeb;" horiz-adv-x="1142" d="M184 0v1409h822v-127h-676v-461h555v-127h-555v-567h710v-127h-856zM342 1532v160h160v-160h-160zM745 1532v160h160v-160h-160z" />
<glyph unicode="&#xec;" horiz-adv-x="581" d="M96 1812h156l221 -280h-154zM102 0v113h117l2 1187h-119v109h377v-109h-119v-1187h119v-113h-377z" />
<glyph unicode="&#xed;" horiz-adv-x="581" d="M102 0v113h117l2 1187h-119v109h377v-109h-119v-1187h119v-113h-377zM117 1532l221 280h156l-224 -280h-153z" />
<glyph unicode="&#xee;" horiz-adv-x="581" d="M-35 1532l262 260h127l262 -260h-133l-192 184l-193 -184h-133zM102 0v113h117l2 1187h-119v109h377v-109h-119v-1187h119v-113h-377z" />
<glyph unicode="&#xef;" horiz-adv-x="581" d="M10 1532v160h160v-160h-160zM102 0v113h117l2 1187h-119v109h377v-109h-119v-1187h119v-113h-377zM414 1532v160h159v-160h-159z" />
<glyph unicode="&#xf0;" horiz-adv-x="1396" d="M82 649v133h149v627h324q180 0 321.5 -52t232 -146t138 -222t47.5 -284t-47.5 -284.5t-138 -222.5t-232 -146t-321.5 -52h-324v649h-149zM375 127h180q152 0 267.5 45.5t184 126t102.5 182.5t34 224t-34 224t-102.5 182t-184 125.5t-267.5 45.5h-180v-500h338v-133h-338 v-522z" />
<glyph unicode="&#xf1;" horiz-adv-x="1427" d="M164 0v1409h133l821 -1171h6l-6 1171h146v-1409h-134l-821 1163h-6l6 -1163h-145zM385 1532q5 89 50.5 146t127.5 57q49 0 103 -26.5t100.5 -52.5t77.5 -26q71 0 88 107h92q-5 -88 -50.5 -145.5t-127.5 -57.5q-49 0 -103 26t-100.5 52t-77.5 26q-71 0 -88 -106h-92z" />
<glyph unicode="&#xf2;" horiz-adv-x="1605" d="M82 705q0 154 56.5 290t152.5 232t229.5 151.5t282.5 55.5q146 0 279 -55.5t230 -151.5t154.5 -232t57.5 -290q0 -205 -97.5 -372.5t-262.5 -261.5t-361 -94q-149 0 -282.5 55.5t-229.5 151.5t-152.5 231.5t-56.5 289.5zM223 705q0 -125 47 -237.5t125.5 -193t185 -127.5 t222.5 -47q115 0 221.5 47t185 127.5t125.5 193t47 237.5t-47 237.5t-125.5 192.5t-185 127t-221.5 47q-116 0 -222.5 -47t-185 -127t-125.5 -192.5t-47 -237.5zM592 1812h156l221 -280h-154z" />
<glyph unicode="&#xf3;" horiz-adv-x="1605" d="M82 705q0 154 56.5 290t152.5 232t229.5 151.5t282.5 55.5q146 0 279 -55.5t230 -151.5t154.5 -232t57.5 -290q0 -205 -97.5 -372.5t-262.5 -261.5t-361 -94q-149 0 -282.5 55.5t-229.5 151.5t-152.5 231.5t-56.5 289.5zM223 705q0 -125 47 -237.5t125.5 -193t185 -127.5 t222.5 -47q115 0 221.5 47t185 127.5t125.5 193t47 237.5t-47 237.5t-125.5 192.5t-185 127t-221.5 47q-116 0 -222.5 -47t-185 -127t-125.5 -192.5t-47 -237.5zM612 1532l222 280h155l-223 -280h-154z" />
<glyph unicode="&#xf4;" horiz-adv-x="1605" d="M82 705q0 154 56.5 290t152.5 232t229.5 151.5t282.5 55.5q146 0 279 -55.5t230 -151.5t154.5 -232t57.5 -290q0 -205 -97.5 -372.5t-262.5 -261.5t-361 -94q-149 0 -282.5 55.5t-229.5 151.5t-152.5 231.5t-56.5 289.5zM223 705q0 -125 47 -237.5t125.5 -193t185 -127.5 t222.5 -47q115 0 221.5 47t185 127.5t125.5 193t47 237.5t-47 237.5t-125.5 192.5t-185 127t-221.5 47q-116 0 -222.5 -47t-185 -127t-125.5 -192.5t-47 -237.5zM487 1532l263 260h127l262 -260h-133l-193 184l-192 -184h-134z" />
<glyph unicode="&#xf5;" horiz-adv-x="1605" d="M82 705q0 154 56.5 290t152.5 232t229.5 151.5t282.5 55.5q146 0 279 -55.5t230 -151.5t154.5 -232t57.5 -290q0 -205 -97.5 -372.5t-262.5 -261.5t-361 -94q-149 0 -282.5 55.5t-229.5 151.5t-152.5 231.5t-56.5 289.5zM223 705q0 -125 47 -237.5t125.5 -193t185 -127.5 t222.5 -47q115 0 221.5 47t185 127.5t125.5 193t47 237.5t-47 237.5t-125.5 192.5t-185 127t-221.5 47q-116 0 -222.5 -47t-185 -127t-125.5 -192.5t-47 -237.5zM477 1532q5 89 50.5 146t127.5 57q49 0 103 -26.5t100.5 -52.5t77.5 -26q71 0 88 107h92q-5 -88 -50.5 -145.5 t-127.5 -57.5q-49 0 -103 26t-100.5 52t-77.5 26q-71 0 -88 -106h-92z" />
<glyph unicode="&#xf6;" horiz-adv-x="1605" d="M82 705q0 154 56.5 290t152.5 232t229.5 151.5t282.5 55.5q146 0 279 -55.5t230 -151.5t154.5 -232t57.5 -290q0 -205 -97.5 -372.5t-262.5 -261.5t-361 -94q-149 0 -282.5 55.5t-229.5 151.5t-152.5 231.5t-56.5 289.5zM223 705q0 -125 47 -237.5t125.5 -193t185 -127.5 t222.5 -47q115 0 221.5 47t185 127.5t125.5 193t47 237.5t-47 237.5t-125.5 192.5t-185 127t-221.5 47q-116 0 -222.5 -47t-185 -127t-125.5 -192.5t-47 -237.5zM522 629v159h160v-159h-160zM926 629v159h159v-159h-159z" />
<glyph unicode="&#xf7;" d="M117 459v121h930v-121h-930zM506 80v166h151v-166h-151zM506 793v165h151v-165h-151z" />
<glyph unicode="&#xf8;" horiz-adv-x="1605" d="M82 705q0 154 56.5 290t152.5 232t229.5 151.5t282.5 55.5q215 0 397 -117l92 117h146l-148 -189q110 -101 172 -240t62 -300q0 -205 -97.5 -372.5t-262.5 -261.5t-361 -94q-229 0 -410 123l-98 -125h-145l153 197q-105 100 -163 237.5t-58 295.5zM223 705 q0 -122 44 -231t122 -193l729 929q-145 99 -315 99q-116 0 -222.5 -47t-185 -127t-125.5 -192.5t-47 -237.5zM475 207q148 -107 328 -107q115 0 221.5 47t185 127.5t125.5 193t47 237.5q0 126 -46 237.5t-130 196.5z" />
<glyph unicode="&#xf9;" horiz-adv-x="1323" d="M154 485v924h145v-936q0 -167 98.5 -265.5t264.5 -98.5t264 98.5t98 265.5v936h145v-924q0 -227 -140.5 -368.5t-366.5 -141.5t-367 141.5t-141 368.5zM449 1812h155l221 -280h-153z" />
<glyph unicode="&#xfa;" horiz-adv-x="1323" d="M154 485v924h145v-936q0 -167 98.5 -265.5t264.5 -98.5t264 98.5t98 265.5v936h145v-924q0 -227 -140.5 -368.5t-366.5 -141.5t-367 141.5t-141 368.5zM489 1532l222 280h155l-223 -280h-154z" />
<glyph unicode="&#xfb;" horiz-adv-x="1323" d="M154 485v924h145v-936q0 -167 98.5 -265.5t264.5 -98.5t264 98.5t98 265.5v936h145v-924q0 -227 -140.5 -368.5t-366.5 -141.5t-367 141.5t-141 368.5zM326 1532l262 260h127l262 -260h-133l-193 184l-192 -184h-133z" />
<glyph unicode="&#xfc;" horiz-adv-x="1323" d="M154 485v924h145v-936q0 -167 98.5 -265.5t264.5 -98.5t264 98.5t98 265.5v936h145v-924q0 -227 -140.5 -368.5t-366.5 -141.5t-367 141.5t-141 368.5zM375 1532v160h160v-160h-160zM778 1532v160h160v-160h-160z" />
<glyph unicode="&#xfd;" horiz-adv-x="1196" d="M27 1409h163l414 -698h6l428 698h152l-862 -1409h-154l350 573zM489 1532l222 280h155l-223 -280h-154z" />
<glyph unicode="&#xff;" horiz-adv-x="1196" d="M27 1409h163l414 -698h6l428 698h152l-862 -1409h-154l350 573zM342 1532v160h160v-160h-160zM745 1532v160h160v-160h-160z" />
<glyph unicode="&#x152;" horiz-adv-x="1878" d="M82 705q0 146 56.5 277t152.5 224.5t229.5 148t282.5 54.5h160h778v-127h-676v-461h555v-127h-555v-567h711v-127h-813h-43h-117q-149 0 -282.5 55t-229.5 148.5t-152.5 224.5t-56.5 277zM223 705q0 -156 79 -290.5t213 -213t288 -78.5h117v1161h-117q-115 0 -222 -46 t-185.5 -123.5t-125.5 -185t-47 -224.5z" />
<glyph unicode="&#x153;" horiz-adv-x="1878" d="M82 705q0 146 56.5 277t152.5 224.5t229.5 148t282.5 54.5h160h778v-127h-676v-461h555v-127h-555v-567h711v-127h-813h-43h-117q-149 0 -282.5 55t-229.5 148.5t-152.5 224.5t-56.5 277zM223 705q0 -156 79 -290.5t213 -213t288 -78.5h117v1161h-117q-115 0 -222 -46 t-185.5 -123.5t-125.5 -185t-47 -224.5z" />
<glyph unicode="&#x178;" horiz-adv-x="1196" d="M27 1409h163l414 -698h6l428 698h152l-862 -1409h-154l350 573zM342 1532v160h160v-160h-160zM745 1532v160h160v-160h-160z" />
<glyph unicode="&#x2c6;" horiz-adv-x="1126" d="M238 1532l262 260h127l262 -260h-133l-193 184l-192 -184h-133z" />
<glyph unicode="&#x2dc;" horiz-adv-x="1130" d="M246 1532q5 89 50.5 146t127.5 57q49 0 103 -26.5t100.5 -52.5t77.5 -26q71 0 88 107h92q-5 -88 -50.5 -145.5t-127.5 -57.5q-49 0 -103 26t-100.5 52t-77.5 26q-71 0 -88 -106h-92z" />
<glyph unicode="&#x2000;" horiz-adv-x="956" />
<glyph unicode="&#x2001;" horiz-adv-x="1913" />
<glyph unicode="&#x2002;" horiz-adv-x="956" />
<glyph unicode="&#x2003;" horiz-adv-x="1913" />
<glyph unicode="&#x2004;" horiz-adv-x="637" />
<glyph unicode="&#x2005;" horiz-adv-x="478" />
<glyph unicode="&#x2006;" horiz-adv-x="318" />
<glyph unicode="&#x2007;" horiz-adv-x="318" />
<glyph unicode="&#x2008;" horiz-adv-x="239" />
<glyph unicode="&#x2009;" horiz-adv-x="382" />
<glyph unicode="&#x200a;" horiz-adv-x="106" />
<glyph unicode="&#x2010;" horiz-adv-x="811" d="M123 453v127h565v-127h-565z" />
<glyph unicode="&#x2011;" horiz-adv-x="811" d="M123 453v127h565v-127h-565z" />
<glyph unicode="&#x2012;" horiz-adv-x="811" d="M123 453v127h565v-127h-565z" />
<glyph unicode="&#x2013;" horiz-adv-x="1138" d="M123 453v127h893v-127h-893z" />
<glyph unicode="&#x2014;" horiz-adv-x="1720" d="M123 453v127h1474v-127h-1474z" />
<glyph unicode="&#x2018;" horiz-adv-x="473" d="M156 999v164l80 246h75l-59 -233h67v-177h-163z" />
<glyph unicode="&#x2019;" horiz-adv-x="473" d="M154 1233v176h163v-164l-79 -246h-76l59 234h-67z" />
<glyph unicode="&#x201a;" horiz-adv-x="473" d="M154 0v176h163v-164l-79 -229h-76l59 217h-67z" />
<glyph unicode="&#x201c;" horiz-adv-x="825" d="M156 999v164l80 246h75l-59 -233h67v-177h-163zM508 999v164l78 246h78l-60 -233h68v-177h-164z" />
<glyph unicode="&#x201d;" horiz-adv-x="825" d="M156 1233v176h163v-164l-77 -246h-78l59 234h-67zM508 1233v176h164v-164l-80 -246h-76l59 234h-67z" />
<glyph unicode="&#x201e;" horiz-adv-x="825" d="M154 0v176h163v-164l-79 -229h-76l59 217h-67zM506 0v176h164v-164l-80 -229h-76l59 217h-67z" />
<glyph unicode="&#x2022;" horiz-adv-x="743" d="M147 516q0 95 65 160t159 65q95 0 160 -65t65 -160q0 -94 -65 -158.5t-160 -64.5q-94 0 -159 64.5t-65 158.5z" />
<glyph unicode="&#x2026;" horiz-adv-x="1472" d="M162 0v186h176v-186h-176zM649 0v186h176v-186h-176zM1137 0v186h176v-186h-176z" />
<glyph unicode="&#x202f;" horiz-adv-x="382" />
<glyph unicode="&#x2039;" horiz-adv-x="636" d="M113 516l297 418h114l-254 -418l254 -418h-114z" />
<glyph unicode="&#x203a;" horiz-adv-x="636" d="M113 98l254 418l-254 418h112l299 -418l-299 -418h-112z" />
<glyph unicode="&#x205f;" horiz-adv-x="478" />
<glyph unicode="&#x20ac;" horiz-adv-x="1185" d="M4 526l25 111h151q-4 54 0 158h-137l25 110h125q39 240 165 383.5t332 143.5q187 0 301 -96.5t150 -270.5h-135q-70 246 -310 246q-144 0 -235 -108t-123 -298h434l-24 -110h-422q-6 -85 -2 -158h409l-22 -111h-377q29 -200 121 -314t241 -114q223 0 295 205h135 q-83 -326 -436 -326q-108 0 -196 41t-149 115.5t-100.5 173.5t-56.5 219h-184z" />
<glyph unicode="&#x2122;" horiz-adv-x="1480" d="M10 1307v102h553v-102h-219v-602h-113v602h-221zM653 705v704h123l250 -397h2l248 397h123v-704h-113l4 534l-233 -371h-62l-233 371l4 -534h-113z" />
<glyph unicode="&#x25fc;" horiz-adv-x="1413" d="M0 0v1413h1413v-1413h-1413z" />
</font>
</defs>
</svg>
