<?xml version="1.0" standalone="no"?> 
<!DOCTYPE svg PUBLIC "-//W3C//DTD SVG 1.1//EN" "http://www.w3.org/Graphics/SVG/1.1/DTD/svg11.dtd" >
<svg xmlns="http://www.w3.org/2000/svg">
<defs>
  <font id="icons" horiz-adv-x="1792">
    <font-face font-family="icons"
      units-per-em="1792" ascent="1792"
      descent="0" />
    <missing-glyph horiz-adv-x="0" />
    <glyph glyph-name="angle-double-down"
      unicode="&#xEA01;"
      horiz-adv-x="1792" d=" M1395 928Q1395 915 1385 905L919 439Q909 429 896 429T873 439L407 905Q397 915 397 928T407 951L457 1001Q467 1011 480 1011T503 1001L896 608L1289 1001Q1299 1011 1312 1011T1335 1001L1385 951Q1395 941 1395 928zM1395 1312Q1395 1299 1385 1289L919 823Q909 813 896 813T873 823L407 1289Q397 1299 397 1312T407 1335L457 1385Q467 1395 480 1395T503 1385L896 992L1289 1385Q1299 1395 1312 1395T1335 1385L1385 1335Q1395 1325 1395 1312z" />
    <glyph glyph-name="angle-double-left"
      unicode="&#xEA02;"
      horiz-adv-x="1792" d=" M1011 416Q1011 403 1001 393L951 343Q941 333 928 333T905 343L439 809Q429 819 429 832T439 855L905 1321Q915 1331 928 1331T951 1321L1001 1271Q1011 1261 1011 1248T1001 1225L608 832L1001 439Q1011 429 1011 416zM1395 416Q1395 403 1385 393L1335 343Q1325 333 1312 333T1289 343L823 809Q813 819 813 832T823 855L1289 1321Q1299 1331 1312 1331T1335 1321L1385 1271Q1395 1261 1395 1248T1385 1225L992 832L1385 439Q1395 429 1395 416z" />
    <glyph glyph-name="angle-double-right"
      unicode="&#xEA03;"
      horiz-adv-x="1792" d=" M979 832Q979 819 969 809L503 343Q493 333 480 333T457 343L407 393Q397 403 397 416T407 439L800 832L407 1225Q397 1235 397 1248T407 1271L457 1321Q467 1331 480 1331T503 1321L969 855Q979 845 979 832zM1363 832Q1363 819 1353 809L887 343Q877 333 864 333T841 343L791 393Q781 403 781 416T791 439L1184 832L791 1225Q781 1235 781 1248T791 1271L841 1321Q851 1331 864 1331T887 1321L1353 855Q1363 845 1363 832z" />
    <glyph glyph-name="angle-double-up"
      unicode="&#xEA04;"
      horiz-adv-x="1792" d=" M1395 480Q1395 467 1385 457L1335 407Q1325 397 1312 397T1289 407L896 800L503 407Q493 397 480 397T457 407L407 457Q397 467 397 480T407 503L873 969Q883 979 896 979T919 969L1385 503Q1395 493 1395 480zM1395 864Q1395 851 1385 841L1335 791Q1325 781 1312 781T1289 791L896 1184L503 791Q493 781 480 781T457 791L407 841Q397 851 397 864T407 887L873 1353Q883 1363 896 1363T919 1353L1385 887Q1395 877 1395 864z" />
    <glyph glyph-name="arrow-down"
      unicode="&#xEA05;"
      horiz-adv-x="1792" d=" M1395 1056Q1395 1043 1385 1033L919 567Q909 557 896 557T873 567L407 1033Q397 1043 397 1056T407 1079L457 1129Q467 1139 480 1139T503 1129L896 736L1289 1129Q1299 1139 1312 1139T1335 1129L1385 1079Q1395 1069 1395 1056z" />
    <glyph glyph-name="arrow-left"
      unicode="&#xEA06;"
      horiz-adv-x="1792" d=" M1203 1248Q1203 1235 1193 1225L800 832L1193 439Q1203 429 1203 416T1193 393L1143 343Q1133 333 1120 333T1097 343L631 809Q621 819 621 832T631 855L1097 1321Q1107 1331 1120 1331T1143 1321L1193 1271Q1203 1261 1203 1248z" />
    <glyph glyph-name="arrow-right"
      unicode="&#xEA07;"
      horiz-adv-x="1792" d=" M1171 832Q1171 819 1161 809L695 343Q685 333 672 333T649 343L599 393Q589 403 589 416T599 439L992 832L599 1225Q589 1235 589 1248T599 1271L649 1321Q659 1331 672 1331T695 1321L1161 855Q1171 845 1171 832z" />
    <glyph glyph-name="arrow-up"
      unicode="&#xEA08;"
      horiz-adv-x="1792" d=" M1395 608Q1395 595 1385 585L1335 535Q1325 525 1312 525T1289 535L896 928L503 535Q493 525 480 525T457 535L407 585Q397 595 397 608T407 631L873 1097Q883 1107 896 1107T919 1097L1385 631Q1395 621 1395 608z" />
    <glyph glyph-name="arrows-alt"
      unicode="&#xEA09;"
      horiz-adv-x="1792" d=" M1411 1251L1056 896L1411 541L1555 685Q1584 716 1625 699Q1664 682 1664 640V192Q1664 166 1645 147T1600 128H1152Q1110 128 1093 168Q1076 207 1107 237L1251 381L896 736L541 381L685 237Q716 207 699 168Q682 128 640 128H192Q166 128 147 147T128 192V640Q128 682 168 699Q207 716 237 685L381 541L736 896L381 1251L237 1107Q218 1088 192 1088Q180 1088 168 1093Q128 1110 128 1152V1600Q128 1626 147 1645T192 1664H640Q682 1664 699 1624Q716 1585 685 1555L541 1411L896 1056L1251 1411L1107 1555Q1076 1585 1093 1624Q1110 1664 1152 1664H1600Q1626 1664 1645 1645T1664 1600V1152Q1664 1110 1625 1093Q1612 1088 1600 1088Q1574 1088 1555 1107z" />
    <glyph glyph-name="arrows"
      unicode="&#xEA0A;"
      horiz-adv-x="1792" d=" M1792 896Q1792 870 1773 851L1517 595Q1498 576 1472 576T1427 595T1408 640V768H1024V384H1152Q1178 384 1197 365T1216 320T1197 275L941 19Q922 0 896 0T851 19L595 275Q576 294 576 320T595 365T640 384H768V768H384V640Q384 614 365 595T320 576T275 595L19 851Q0 870 0 896T19 941L275 1197Q294 1216 320 1216T365 1197T384 1152V1024H768V1408H640Q614 1408 595 1427T576 1472T595 1517L851 1773Q870 1792 896 1792T941 1773L1197 1517Q1216 1498 1216 1472T1197 1427T1152 1408H1024V1024H1408V1152Q1408 1178 1427 1197T1472 1216T1517 1197L1773 941Q1792 922 1792 896z" />
    <glyph glyph-name="bars"
      unicode="&#xEA0B;"
      horiz-adv-x="1792" d=" M1664 448V320Q1664 294 1645 275T1600 256H192Q166 256 147 275T128 320V448Q128 474 147 493T192 512H1600Q1626 512 1645 493T1664 448zM1664 960V832Q1664 806 1645 787T1600 768H192Q166 768 147 787T128 832V960Q128 986 147 1005T192 1024H1600Q1626 1024 1645 1005T1664 960zM1664 1472V1344Q1664 1318 1645 1299T1600 1280H192Q166 1280 147 1299T128 1344V1472Q128 1498 147 1517T192 1536H1600Q1626 1536 1645 1517T1664 1472z" />
    <glyph glyph-name="caret-down"
      unicode="&#xEA0C;"
      horiz-adv-x="1792" d=" M1408 1088Q1408 1062 1389 1043L941 595Q922 576 896 576T851 595L403 1043Q384 1062 384 1088T403 1133T448 1152H1344Q1370 1152 1389 1133T1408 1088z" />
    <glyph glyph-name="caret-left"
      unicode="&#xEA0D;"
      horiz-adv-x="1792" d=" M1216 1344V448Q1216 422 1197 403T1152 384T1107 403L659 851Q640 870 640 896T659 941L1107 1389Q1126 1408 1152 1408T1197 1389T1216 1344z" />
    <glyph glyph-name="caret-right"
      unicode="&#xEA0E;"
      horiz-adv-x="1792" d=" M1152 896Q1152 870 1133 851L685 403Q666 384 640 384T595 403T576 448V1344Q576 1370 595 1389T640 1408T685 1389L1133 941Q1152 922 1152 896z" />
    <glyph glyph-name="caret-up"
      unicode="&#xEA0F;"
      horiz-adv-x="1792" d=" M1408 576Q1408 550 1389 531T1344 512H448Q422 512 403 531T384 576T403 621L851 1069Q870 1088 896 1088T941 1069L1389 621Q1408 602 1408 576z" />
    <glyph glyph-name="close"
      unicode="&#xEA10;"
      horiz-adv-x="1792" d=" M1490 470Q1490 430 1462 402L1326 266Q1298 238 1258 238T1190 266L896 560L602 266Q574 238 534 238T466 266L330 402Q302 430 302 470T330 538L624 832L330 1126Q302 1154 302 1194T330 1262L466 1398Q494 1426 534 1426T602 1398L896 1104L1190 1398Q1218 1426 1258 1426T1326 1398L1462 1262Q1490 1234 1490 1194T1462 1126L1168 832L1462 538Q1490 510 1490 470z" />
    <glyph glyph-name="code"
      unicode="&#xEA11;"
      horiz-adv-x="1792" d=" M553 393L503 343Q493 333 480 333T457 343L-9 809Q-19 819 -19 832T-9 855L457 1321Q467 1331 480 1331T503 1321L553 1271Q563 1261 563 1248T553 1225L160 832L553 439Q563 429 563 416T553 393zM1144 1460L771 169Q767 156 755.5 149.5T732 147L670 164Q657 168 650.5 179.5T648 204L1021 1495Q1025 1508 1036.5 1514.5T1060 1517L1122 1500Q1135 1496 1141.5 1484.5T1144 1460zM1801 809L1335 343Q1325 333 1312 333T1289 343L1239 393Q1229 403 1229 416T1239 439L1632 832L1239 1225Q1229 1235 1229 1248T1239 1271L1289 1321Q1299 1331 1312 1331T1335 1321L1801 855Q1811 845 1811 832T1801 809z" />
    <glyph glyph-name="facebook"
      unicode="&#xEA12;"
      horiz-adv-x="1792" d=" M1343 1780V1516H1186Q1100 1516 1070 1480T1040 1372V1183H1333L1294 887H1040V128H734V887H479V1183H734V1401Q734 1587 838 1689.5T1115 1792Q1262 1792 1343 1780z" />
    <glyph glyph-name="image"
      unicode="&#xEA13;"
      horiz-adv-x="1792" d=" M576 1216Q576 1136 520 1080T384 1024T248 1080T192 1216T248 1352T384 1408T520 1352T576 1216zM1600 832V384H192V576L512 896L672 736L1184 1248zM1696 1536H96Q83 1536 73.5 1526.5T64 1504V288Q64 275 73.5 265.5T96 256H1696Q1709 256 1718.5 265.5T1728 288V1504Q1728 1517 1718.5 1526.5T1696 1536zM1856 1504V288Q1856 222 1809 175T1696 128H96Q30 128 -17 175T-64 288V1504Q-64 1570 -17 1617T96 1664H1696Q1762 1664 1809 1617T1856 1504z" />
    <glyph glyph-name="inbox"
      unicode="&#xEA14;"
      horiz-adv-x="1792" d=" M1151 832H1467Q1466 835 1464.5 840T1462 848L1250 1344H542L330 848Q329 846 327.5 840T325 832H641L736 640H1056zM1664 802V320Q1664 294 1645 275T1600 256H192Q166 256 147 275T128 320V802Q128 864 153 925L391 1477Q401 1502 427.5 1519T480 1536H1312Q1338 1536 1364.5 1519T1401 1477L1639 925Q1664 864 1664 802z" />
    <glyph glyph-name="info"
      unicode="&#xEA15;"
      horiz-adv-x="1792" d=" M1216 448V320Q1216 294 1197 275T1152 256H640Q614 256 595 275T576 320V448Q576 474 595 493T640 512H704V896H640Q614 896 595 915T576 960V1088Q576 1114 595 1133T640 1152H1024Q1050 1152 1069 1133T1088 1088V512H1152Q1178 512 1197 493T1216 448zM1088 1600V1408Q1088 1382 1069 1363T1024 1344H768Q742 1344 723 1363T704 1408V1600Q704 1626 723 1645T768 1664H1024Q1050 1664 1069 1645T1088 1600z" />
    <glyph glyph-name="instagram"
      unicode="&#xEA16;"
      horiz-adv-x="1792" d=" M1490 366V1014H1355Q1375 951 1375 883Q1375 757 1311 650.5T1137 482T897 420Q700 420 560 555.5T420 883Q420 951 440 1014H299V366Q299 340 316.5 322.5T360 305H1429Q1454 305 1472 322.5T1490 366zM1206 899Q1206 1023 1115.5 1110.5T897 1198Q770 1198 679.5 1110.5T589 899T679.5 687.5T897 600Q1025 600 1115.5 687.5T1206 899zM1490 1259V1424Q1490 1452 1470 1472.5T1421 1493H1247Q1218 1493 1198 1472.5T1178 1424V1259Q1178 1230 1198 1210T1247 1190H1421Q1450 1190 1470 1210T1490 1259zM1664 1467V325Q1664 244 1606 186T1467 128H325Q244 128 186 186T128 325V1467Q128 1548 186 1606T325 1664H1467Q1548 1664 1606 1606T1664 1467z" />
    <glyph glyph-name="twitter"
      unicode="&#xEA17;"
      horiz-adv-x="1792" d=" M1684 1384Q1617 1286 1522 1217Q1523 1203 1523 1175Q1523 1045 1485 915.5T1369.5 667T1185 456.5T927 310.5T604 256Q333 256 108 401Q143 397 186 397Q411 397 587 535Q482 537 399 599.5T285 759Q318 754 346 754Q389 754 431 765Q319 788 245.5 876.5T172 1082V1086Q240 1048 318 1045Q252 1089 213 1160T174 1314Q174 1402 218 1477Q339 1328 512.5 1238.5T884 1139Q876 1177 876 1213Q876 1347 970.5 1441.5T1199 1536Q1339 1536 1435 1434Q1544 1455 1640 1512Q1603 1397 1498 1334Q1591 1344 1684 1384z" />
    <glyph glyph-name="youtube"
      unicode="&#xEA18;"
      horiz-adv-x="1792" d=" M1099 548V337Q1099 270 1060 270Q1037 270 1015 292V593Q1037 615 1060 615Q1099 615 1099 548zM1437 547V501H1347V547Q1347 615 1392 615T1437 547zM471 765H578V859H266V765H371V196H471V765zM759 196H848V690H759V312Q729 270 702 270Q684 270 681 291Q680 294 680 326V690H591V299Q591 250 599 226Q611 189 657 189Q705 189 759 250V196zM1188 344V541Q1188 614 1179 640Q1162 696 1108 696Q1058 696 1015 642V859H926V196H1015V244Q1060 189 1108 189Q1162 189 1179 244Q1188 271 1188 344zM1526 354V367H1435Q1435 316 1433 306Q1426 270 1393 270Q1347 270 1347 339V426H1526V529Q1526 608 1499 645Q1460 696 1393 696Q1325 696 1286 645Q1258 608 1258 529V356Q1258 277 1287 240Q1326 189 1395 189Q1467 189 1503 242Q1521 269 1524 296Q1526 305 1526 354zM918 1267V1477Q918 1546 875 1546T832 1477V1267Q832 1197 875 1197T918 1267zM1637 516Q1637 282 1611 166Q1597 107 1553 67T1451 21Q1267 0 896 0T341 21Q283 27 238.5 67T181 166Q155 278 155 516Q155 750 181 866Q195 925 239 965T342 1012Q525 1032 896 1032T1451 1012Q1509 1005 1553.5 965T1611 866Q1637 754 1637 516zM639 1792H741L620 1393V1122H520V1393Q506 1467 459 1605Q422 1708 394 1792H500L571 1529zM1009 1459V1284Q1009 1203 981 1166Q944 1115 875 1115Q808 1115 770 1166Q742 1204 742 1284V1459Q742 1539 770 1576Q808 1627 875 1627Q944 1627 981 1576Q1009 1539 1009 1459zM1344 1621V1122H1253V1177Q1200 1115 1150 1115Q1104 1115 1091 1152Q1083 1176 1083 1227V1621H1174V1254Q1174 1221 1175 1219Q1178 1197 1196 1197Q1223 1197 1253 1240V1621H1344z" />
  </font>
</defs>
</svg>
